На всех торрентах на трекере установлена скидка на скачивание в размере 100 процентов(а).
 Возможность скачивания торрента НЕ зависит от ограничений при низком ратио, низком аплоаде, требуемом ратио или требуемом аплоаде.


Начать новую тему Ответить на тему
Статистика раздачи
Размер: 7.43 ГБ | Добавлен: 19 сен 2014, 07:27 | Скачали: 0
Сидеров: 82  [0 байт/сек]    Личеров: 1  [0 байт/сек]
Пред. тема | След. тема 

Автор
Сообщение

СообщениеДобавлено: 19 сен 2014, 07:27 

Год выпуска: 2014
Производство: США, Walt Disney Pictures
Жанр: Драма, биография, спорт

Режиссер: Крэйг Гиллеспи
Продюсер: Марк Кьярди, Гордон Грэй, Джо Рот
Актеры: Джон Хэмм, Питобаш Трипати, Сурадж Шарма, Мадхур Миттал, Аасиф Мандви, Даршан Джаривала, Лэйк Белл, Алан Аркин, Билл Пэкстон, Грегори Алан Уильямс

Описание фильма:
Спортивный агент использует нетрадиционные способы найма, чтобы переманить талантливых азиатских игроков в крикет в Высшую лигу бейсбола.

Перевод: Дублированный
Язык субтитров: Английский
Вид субтитров: Вшитые (отключаемые)



Дата мировой премьеры: 18 сентября 2014
Дата выхода DVD релиза: 30 сентября 2014
Дата выхода Blu-Ray релиза: 30 сентября 2014

Продолжительность: 02:04:14
Качество видео: BDRip (720p)

Видеокодек: MPEG-4 AVC
Битрейт видео: ~6687 Кбит/с
Размер кадра: 1280x536
Аудио 1: AC3, 2 ch, 192 Кбит/с - русский
Аудио 2: DTS, 6 ch, 1510 Кбит/c - английский
Общее
Уникальный идентификатор : 230305226078243557603460563096932501693 (0xAD432C51F07D0790BCDDB097FAFCC8BD)
Полное имя : C:\NNM\Рука на миллион\Pyka na million 2014 BDRip 720p.mkv
Формат : Matroska
Версия формата : Version 2
Размер файла : 7,43 Гбайт
Продолжительность : 2 ч. 4 м.
Общий поток : 8559 Кбит/сек
Дата кодирования : UTC 2014-09-18 12:36:02
Программа кодирования : mkvmerge v3.3.0 ('Language') built on Mar 24 2010 14:59:24
Библиотека кодирования : libebml v0.8.0 + libmatroska v0.9.0

Видео
Идентификатор : 1
Формат : AVC
Формат/Информация : Advanced Video Codec
Профиль формата :
Параметр CABAC формата : Да
Параметр ReFrames формата : 12 кадров
Идентификатор кодека : V_MPEG4/ISO/AVC
Продолжительность : 2 ч. 4 м.
Битрейт : 6687 Кбит/сек
Ширина : 1280 пикселей
Высота : 536 пикселей
Соотношение сторон : 2,40:1
Частота кадров : 23,976 кадра/сек
Цветовое пространство : YUV
Субдискретизация насыщенности : 4:2:0
Битовая глубина : 8 бит
Тип развёртки : Прогрессивная
Бит/(Пиксели*Кадры) : 0.407
Размер потока : 5,80 Гбайт (78%)
Заголовок : Million.Dollar.Arm.2014.720p.BluRay.DTS.x264-HDAccess
Библиотека кодирования : x264 core 142 r2479kMod dd79a61
Настройки программы : cabac=1 / ref=12 / deblock=1:-3:-3 / analyse=0x3:0x113 / me=umh / subme=10 / psy=1 / fade_compensate=0.00 / psy_rd=1.02:0.00 / mixed_ref=1 / me_range=24 / chroma_me=1 / trellis=2 / 8x8dct=1 / cqm=0 / deadzone=21,11 / fast_pskip=0 / chroma_qp_offset=-2 / threads=12 / lookahead_threads=3 / sliced_threads=0 / nr=0 / decimate=1 / interlaced=0 / bluray_compat=0 / constrained_intra=0 / fgo=0 / bframes=11 / b_pyramid=2 / b_adapt=2 / b_bias=0 / direct=3 / weightb=1 / open_gop=0 / weightp=2 / keyint=230 / keyint_min=23 / scenecut=40 / intra_refresh=0 / rc_lookahead=40 / rc=crf / mbtree=0 / crf=16.5000 / qcomp=0.75 / qpmin=0 / qpmax=69 / qpstep=4 / vbv_maxrate=50000 / vbv_bufsize=62500 / crf_max=0.0 / nal_hrd=none / filler=0 / ip_ratio=1.30 / pb_ratio=1.20 / aq=1:0.85
Язык : English
Default : Нет
Forced : Нет
Коэффициенты матрицы : BT.709-5, BT.1361, IEC 61966-2-4 709, SMPTE RP177

Аудио #1
Идентификатор : 2
Формат : AC-3
Формат/Информация : Audio Coding 3
Расширение режима : CM (complete main)
Идентификатор кодека : A_AC3
Продолжительность : 2 ч. 4 м.
Вид битрейта : Постоянный
Битрейт : 192 Кбит/сек
Каналы : 2 канала
Расположение каналов : Front: L R
Частота : 48,0 КГц
Битовая глубина : 16 бит
Метод сжатия : С потерями
Размер потока : 171 Мбайт (2%)
Заголовок : Дубляж
Язык : Russian
Default : Да
Forced : Нет

Аудио #2
Идентификатор : 3
Формат : DTS
Формат/Информация : Digital Theater Systems
Идентификатор кодека : A_DTS
Продолжительность : 2 ч. 4 м.
Вид битрейта : Постоянный
Битрейт : 1510 Кбит/сек
Каналы : 6 каналов
Расположение каналов : Front: L C R, Side: L R, LFE
Частота : 48,0 КГц
Битовая глубина : 24 бит
Метод сжатия : С потерями
Задержка видео : 11 мс.
Размер потока : 1,31 Гбайт (18%)
Язык : English
Default : Нет
Forced : Нет

Текст #1
Идентификатор : 4
Формат : PGS
Идентификатор кодека : S_HDMV/PGS
Идентификатор кодека/Информация : The same subtitle format used on BDs/HD-DVDs
Заголовок : forced
Язык : English
Default : Нет
Forced : Да

Текст #2
Идентификатор : 5
Формат : PGS
Идентификатор кодека : S_HDMV/PGS
Идентификатор кодека/Информация : The same subtitle format used on BDs/HD-DVDs
Язык : English
Default : Нет
Forced : Нет

Меню
00:00:00.000 : en:00:00:00.000
00:04:32.063 : en:00:04:32.063
00:09:26.441 : en:00:09:26.441
00:15:31.973 : en:00:15:31.973
00:24:40.479 : en:00:24:40.479
00:33:24.085 : en:00:33:24.085
00:39:43.590 : en:00:39:43.590
00:45:25.598 : en:00:45:25.598
00:50:57.846 : en:00:50:57.846
00:59:58.887 : en:00:59:58.887
01:05:38.601 : en:01:05:38.601
01:14:49.694 : en:01:14:49.694
01:24:14.633 : en:01:24:14.633
01:28:34.434 : en:01:28:34.434
01:35:16.044 : en:01:35:16.044
01:43:13.062 : en:01:43:13.062
01:47:55.678 : en:01:47:55.678
01:55:12.114 : en:01:55:12.114
Скриншоты:



загрузка...
Правила, инструкции, FAQ!!!
Торрент  Добавлен [19 сен 2014, 07:27] Скачать торрент
Скачать торрент
[ Размер 37.86 КБ / Просмотров 12 ]

Статус
Проверен 
 
Размер  7.43 ГБ
Приватный: Нет (DHT включён)
.torrent скачан  0
Как залить торрент? | Как скачать Torrent? | Как смотреть и слушать онлайн?  


     Отправить личное сообщение
   
Страница 1 из 1
Показать сообщения за:  Поле сортировки  
Начать новую тему Ответить на тему

   Похожие торренты   Автор   Ответы   Просмотры   Последнее сообщение 
В этой теме нет новых непрочитанных сообщений. Рука на миллион / Million Dollar Arm (2014) WEBRip | Чистый звук

в форуме Новинки кино, Размер: 1.37 ГБ, Здоровье: 100%

Anonymous

0
314|2

306
1975

16 сен 2014, 16:08

Anonymous Перейти к последнему сообщению

В этой теме нет новых непрочитанных сообщений. Скачать торрент Проверен Малышка на миллион / Million Dollar Baby (2004) BDRip 720p | D, A

в форуме 720p | 1080p, Размер: 6.38 ГБ, Здоровье: 0%

Гость

0
0|0

47
16

03 дек 2014, 17:26

Гость Перейти к последнему сообщению

В этой теме нет новых непрочитанных сообщений. Скачать торрент Проверен Малышка на миллион / Million Dollar Baby (2004) BDRip

в форуме Драмы, Мелодрамы, Размер: 1.45 ГБ, Здоровье: 100%

Anonymous

0
192|3

60
1270

03 дек 2014, 17:24

Anonymous Перейти к последнему сообщению

В этой теме нет новых непрочитанных сообщений. Скачать торрент Проверен Малышка на миллион / Million Dollar Baby (2004) BDRip 1080p

в форуме 720p | 1080p, Размер: 11.5 ГБ, Здоровье: 100%

Anonymous

0
41|16

68
30

03 дек 2014, 17:29

Anonymous Перейти к последнему сообщению

В этой теме нет новых непрочитанных сообщений. Скачать торрент Малышка на миллион / Million Dollar Baby (Клинт Иствуд / Clint Eastwood) [2004, США, драма, спорт, BDRip-AVC] Dub

в форуме Драмы, Мелодрамы, Размер: 4.28 ГБ, Здоровье: 100%

Anonymous

0
50|17

57
1

22 апр 2014, 11:41

Anonymous Перейти к последнему сообщению



Сейчас этот форум просматривают: нет зарегистрированных пользователей и гости: 2


Вы не можете начинать темы
Вы не можете отвечать на сообщения
Вы не можете редактировать свои сообщения
Вы не можете удалять свои сообщения
Вы не можете добавлять вложения

Перейти:  

!ВНИМАНИЕ!
 Ресурс не предоставляет электронные версии произведений, а занимается лишь коллекционированием и каталогизацией ссылок, присылаемых и публикуемых на форуме нашими читателями. Если вы являетесь правообладателем какого-либо представленного материала и не желаете чтобы ссылка на него находилась в нашем каталоге, свяжитесь с нами и мы незамедлительно удалим её. Файлы для обмена на трекере предоставлены пользователями сайта, и администрация не несёт ответственности за их содержание. Просьба не заливать файлы, защищенные авторскими правами, а также файлы нелегального содержания!