На всех торрентах на трекере установлена скидка на скачивание в размере 100 процентов(а).
 Возможность скачивания торрента НЕ зависит от ограничений при низком ратио, низком аплоаде, требуемом ратио или требуемом аплоаде.


Начать новую тему Ответить на тему
Статистика раздачи
Размер: 11.5 ГБ | Добавлен: 18 сен 2014, 21:38 | Скачали: 431
Сидеров: 45  [0 байт/сек]    Личеров: 9  [0 байт/сек]
Пред. тема | След. тема 

Автор
Сообщение

СообщениеДобавлено: 18 сен 2014, 21:38 

Название: Звездный путь
Оригинальное название: Star Trek
Год выхода: 2009
Жанр: фантастика, боевик, приключения
Режиссер: Джей Джей Абрамс

В ролях: Крис Пайн, Закари Куинто, Зои Салдана, Карл Урбан, Эрик Бана, Антон Ельчин, Саймон Пегг, Джон Чо, Леонард Нимой, Брюс Гринвуд

О фильме: Когда Нерон с планеты Ромул приходит из будущего, чтобы отомстить Федерации, конкуренты Кирк и Спок должны объединиться, чтобы не дать ему разрушить все, что им дорого. Во время этого будоражащего путешествия, наполненного эффектными боями, юмором и космическими угрозами, новоиспеченные члены команды военного корабля «Энтерпрайз» смело встретятся лицом к лицу с невообразимыми опасностями.



Выпущено: Paramount Pictures
Продолжительность: 02:06:50
Перевод: Дублированный (лицензия)


Кодек: x264
Качество: BDRip (источник: Blu-ray Disc)
Видео: 1920x800 (2,40:1), 23.976 fps, 11,7 Mbps
Аудио #1: AC-3, 6 ch, 640 kbps (Rus)
Аудио #2: AC-3, 6 ch, 640 kbps (Eng)
Субтитры: Русские (форс,полные), Английские
Скачать: сэмпл

Скриншоты

Общее
Уникальный идентификатор : 201988784198079270593129365629032524457 (0x97F59FF25A108727A8D05E2E5704EAA9)
Полное имя : Star.Trek.2009.BDRip.1080p.Rus.Eng.mkv
Формат : Matroska
Версия формата : Version 2
Размер файла : 11,5 Гбайт
Продолжительность : 2 ч. 6 м.
Общий поток : 13,0 Мбит/сек
Название фильма : Звездный путь / Star Trek (2009)
Дата кодирования : UTC 2014-09-18 15:37:24
Программа кодирования : mkvmerge v5.8.0 ('No Sleep / Pillow') built on Sep 2 2012 15:37:04
Библиотека кодирования : libebml v1.2.3 + libmatroska v1.3.0

Видео
Идентификатор : 1
Формат : AVC
Формат/Информация : Advanced Video Codec
Профиль формата : High@L4.1
Параметр CABAC формата : Да
Параметр ReFrames формата : 5 кадров
Идентификатор кодека : V_MPEG4/ISO/AVC
Продолжительность : 2 ч. 6 м.
Битрейт : 11,7 Мбит/сек
Ширина : 1920 пикселей
Высота : 800 пикселей
Соотношение сторон : 2,40:1
Режим частоты кадров : Постоянный
Частота кадров : 23,976 кадра/сек
Цветовое пространство : YUV
Субдискретизация насыщенности : 4:2:0
Битовая глубина : 8 бит
Тип развёртки : Прогрессивная
Бит/(Пиксели*Кадры) : 0.318
Размер потока : 10,1 Гбайт (88%)
Заголовок : Release by AlexKa
Библиотека кодирования : x264 core 142 r2479 dd79a61
Настройки программы : cabac=1 / ref=5 / deblock=1:-3:-3 / analyse=0x3:0x133 / me=umh / subme=11 / psy=1 / psy_rd=1.00:0.00 / mixed_ref=1 / me_range=32 / chroma_me=1 / trellis=2 / 8x8dct=1 / cqm=0 / deadzone=21,11 / fast_pskip=0 / chroma_qp_offset=-2 / threads=12 / lookahead_threads=3 / sliced_threads=0 / nr=0 / decimate=0 / interlaced=0 / bluray_compat=0 / constrained_intra=0 / bframes=10 / b_pyramid=2 / b_adapt=2 / b_bias=0 / direct=3 / weightb=1 / open_gop=0 / weightp=2 / keyint=240 / keyint_min=23 / scenecut=40 / intra_refresh=0 / rc=2pass / mbtree=0 / bitrate=11700 / ratetol=1.0 / qcomp=0.60 / qpmin=0 / qpmax=69 / qpstep=4 / cplxblur=20.0 / qblur=0.5 / ip_ratio=1.40 / pb_ratio=1.30 / aq=1:0.80
Язык : English

Аудио #1
Идентификатор : 2
Формат : AC-3
Формат/Информация : Audio Coding 3
Расширение режима : CM (complete main)
Параметр Endianness формата : Big
Идентификатор кодека : A_AC3
Продолжительность : 2 ч. 6 м.
Вид битрейта : Постоянный
Битрейт : 640 Кбит/сек
Каналы : 6 каналов
Расположение каналов : Front: L C R, Side: L R, LFE
Частота : 48,0 КГц
Битовая глубина : 16 бит
Метод сжатия : С потерями
Размер потока : 581 Мбайт (5%)
Заголовок : Rus
Язык : Russian

Аудио #2
Идентификатор : 3
Формат : AC-3
Формат/Информация : Audio Coding 3
Расширение режима : CM (complete main)
Параметр Endianness формата : Big
Идентификатор кодека : A_AC3
Продолжительность : 2 ч. 6 м.
Вид битрейта : Постоянный
Битрейт : 640 Кбит/сек
Каналы : 6 каналов
Расположение каналов : Front: L C R, Side: L R, LFE
Частота : 48,0 КГц
Битовая глубина : 16 бит
Метод сжатия : С потерями
Размер потока : 581 Мбайт (5%)
Заголовок : Eng
Язык : English

Текст #1
Идентификатор : 4
Формат : UTF-8
Идентификатор кодека : S_TEXT/UTF8
Идентификатор кодека/Информация : UTF-8 Plain Text
Заголовок : Rus forced
Язык : Russian

Текст #2
Идентификатор : 5
Формат : UTF-8
Идентификатор кодека : S_TEXT/UTF8
Идентификатор кодека/Информация : UTF-8 Plain Text
Заголовок : Rus
Язык : Russian

Текст #3
Идентификатор : 6
Формат : UTF-8
Идентификатор кодека : S_TEXT/UTF8
Идентификатор кодека/Информация : UTF-8 Plain Text
Заголовок : Eng
Язык : English

Меню
00:00:00.000 : :Chapter 01
00:11:57.216 : :Chapter 02
00:19:45.100 : :Chapter 03
00:28:09.104 : :Chapter 04
00:35:33.506 : :Chapter 05
00:44:10.397 : :Chapter 06
00:52:21.721 : :Chapter 07
01:01:33.606 : :Chapter 08
01:11:40.087 : :Chapter 09
01:20:39.501 : :Chapter 10
01:27:35.291 : :Chapter 11
01:36:29.575 : :Chapter 12
01:44:34.268 : :Chapter 13
01:53:13.411 : :Chapter 14
01:58:20.551 : :Chapter 15
02:06:50.019 : :Chapter 16
загрузка...
Правила, инструкции, FAQ!!!
Торрент  Добавлен [18 сен 2014, 21:38] Скачать торрент
Скачать торрент
[ Размер 29.41 КБ / Просмотров 10 ]

Статус
Проверен 
 
Размер  11.5 ГБ
Приватный: Нет (DHT включён)
.torrent скачан  431
Как залить торрент? | Как скачать Torrent? | Как смотреть и слушать онлайн?  


     Отправить личное сообщение
   
Страница 1 из 1
Показать сообщения за:  Поле сортировки  
Начать новую тему Ответить на тему

   Похожие торренты   Автор   Ответы   Просмотры   Последнее сообщение 
В этой теме нет новых непрочитанных сообщений. Скачать торрент Проверен Звездный путь / Star Trek (2009) BDRip 720p | Лицензия

в форуме 720p | 1080p, Размер: 6.16 ГБ, Здоровье: 100%

Anonymous

0
33|3

46
242

18 сен 2014, 21:41

Anonymous Перейти к последнему сообщению

В этой теме нет новых непрочитанных сообщений. Скачать торрент Проверен Звездный путь 7: Поколения / Star Trek VII: Generations (1994) BDRip [H.264/720р-LQ]

в форуме 720p | 1080p, Размер: 2.71 ГБ, Здоровье: 100%

Anonymous

0
30|12

57
0

10 май 2015, 11:25

Anonymous Перейти к последнему сообщению

В этой теме нет новых непрочитанных сообщений. Скачать торрент Проверен [iPad] Звездный путь / Star Trek (Джей Джей Абрамс / J.J. Abrams) [2009, фантастика, боевик, BDRip, 1024x] (DUB | VO | Original)

в форуме Фильмы для iPod, iPhone, iPad, Размер: 2.9 ГБ, Здоровье: 100%

Anonymous

0
14|5

31
0

18 май 2015, 10:46

Anonymous Перейти к последнему сообщению

В этой теме нет новых непрочитанных сообщений. Скачать торрент Проверен Звездный путь 8: Первый контакт / Star Trek VIII: First Contact (1996) BDRip [H.264/720р-LQ]

в форуме 720p | 1080p, Размер: 2.64 ГБ, Здоровье: 100%

Anonymous

0
1|0

107
3

10 май 2015, 18:35

Anonymous Перейти к последнему сообщению

В этой теме нет новых непрочитанных сообщений. Скачать торрент Звёздный путь 10: Возмездие / Star Trek X: Nemesis (Стюарт Бейрд / Stuart Baird) [2002 г., фантастика, боевик, приключения, BDRip-AVC]

в форуме Фантастика, Фэнтези, Размер: 1.45 ГБ, Здоровье: 100%

Anonymous

0
56|19

47
0

22 апр 2014, 11:39

Anonymous Перейти к последнему сообщению



Сейчас этот форум просматривают: нет зарегистрированных пользователей и гости: 2


Вы не можете начинать темы
Вы не можете отвечать на сообщения
Вы не можете редактировать свои сообщения
Вы не можете удалять свои сообщения
Вы не можете добавлять вложения

Перейти:  

!ВНИМАНИЕ!
 Ресурс не предоставляет электронные версии произведений, а занимается лишь коллекционированием и каталогизацией ссылок, присылаемых и публикуемых на форуме нашими читателями. Если вы являетесь правообладателем какого-либо представленного материала и не желаете чтобы ссылка на него находилась в нашем каталоге, свяжитесь с нами и мы незамедлительно удалим её. Файлы для обмена на трекере предоставлены пользователями сайта, и администрация не несёт ответственности за их содержание. Просьба не заливать файлы, защищенные авторскими правами, а также файлы нелегального содержания!