На всех торрентах на трекере установлена скидка на скачивание в размере 100 процентов(а).
 Возможность скачивания торрента НЕ зависит от ограничений при низком ратио, низком аплоаде, требуемом ратио или требуемом аплоаде.


Начать новую тему Ответить на тему
Статистика раздачи
Размер: 2.1 ГБ | Добавлен: 18 сен 2014, 13:38 | Скачали: 0
Сидеров: 1722  [0 байт/сек]    Личеров: 27  [0 байт/сек]
Пред. тема | След. тема 

Автор
Сообщение

СообщениеДобавлено: 18 сен 2014, 13:38 

Год выпуска: 2014
Производство: США / As Is Productions, The Weinstein Company LLC, Tonik Productions, Walden Media
Жанр: Фантастика, драма

Режиссер: Филлип Нойс
Продюсер: Джефф Бриджес, Нил Кёнигсберг, Николь Сильвер
Актеры: Брентон Туэйтс, Мэрил Стрип, Джефф Бриджес, Александр Скарсгард, Кэти Холмс, Тейлор Свифт, Кэмерон Монахэн, Одейя Раш, Эмма Трамбле, Катарина Дэмм

Описание фильма:
Юный Джонас живет в идеальном, максимально цивилизованном обществе будущего, где больше нет войн, боли, страданий, радости, воспоминаний. Для каждого члена здесь определен идеальный порядок существования, и теперь никому не приходится выбирать шаг, мысль, цвет - все вокруг однозначно серое... По решению Совета общества Джонас назначается Хранителем памяти, которую он должен перенять у Учителя по имени Дающий. Юноше открывается правда о настоящем мире, но чтобы освободить свой мир, он должен бросить ему вызов...

Перевод: Дублированный [Чистый звук]
Субтитры: Отсутствуют



Дата мировой премьеры: 11 августа 2014
Дата российской премьеры: 21 августа 2014
Дата выхода DVD релиза: 21 октября 2014
Дата выхода Blu-Ray релиза: 21 октября 2014

Продолжительность: 01:37:23
Качество видео: HDTVRip 720p-LQ

Видео: MPEG-4 AVC/H.264, 1280x520 (2.462), 29.970 fps, 2 750 Kbps (0.138 bit/pixel)
Аудио #1: AC3 , 48.0 KHz, 2 ch, 192 Kbps, CBR (Русский)
Аудио #2: AC3 , 44.1 KHz, 2 ch, 192 Kbps, CBR (Английский)
Сэмпл: Скачать
Код:
Код:
Общее
Полное имя                               : Posvyaschenniy.2014.D.HDTV.720p.nnm-club.mkv
Формат                                   : Matroska
Версия формата                           : Version 4 / Version 2
Размер файла                             : 2,10 Гбайт
Продолжительность                        : 1 ч. 37 м.
Общий поток                              : 3092 Кбит/сек
Дата кодирования                         : UTC 2014-09-16 16:16:23
Программа кодирования                    : mkvmerge v7.0.0 ('Where We Going') 64bit built on Jun  9 2014 15:16:27
Библиотека кодирования                   : libebml v1.3.0 + libmatroska v1.4.1
_STATISTICS_WRITING_APP                  : mkvmerge v7.0.0 ('Where We Going') 64bit built on Jun  9 2014 15:16:27
_STATISTICS_WRITING_DATE_UTC             : 2014-09-16 16:16:23
_STATISTICS_TAGS                         : BPS DURATION NUMBER_OF_FRAMES NUMBER_OF_BYTES
DURATION                                 : 01:37:23.200000000
NUMBER_OF_FRAMES                         : 182600
NUMBER_OF_BYTES                          : 140236800

Видео
Идентификатор                            : 1
Формат                                   : AVC
Формат/Информация                        : Advanced Video Codec
Профиль формата                          :
Параметр CABAC формата                   : Да
Параметр ReFrames формата                : 4 кадра
Идентификатор кодека                     : V_MPEG4/ISO/AVC
Продолжительность                        : 1 ч. 37 м.
Битрейт                                  : 2750 Кбит/сек
Ширина                                   : 1280 пикселей
Высота                                   : 520 пикселей
Соотношение сторон                       : 2,462
Режим частоты кадров                     : Постоянный
Частота кадров                           : 29,970 кадров/сек
Цветовое пространство                    : YUV
Субдискретизация насыщенности            : 4:2:0
Битовая глубина                          : 8 бит
Тип развёртки                            : Прогрессивная
Бит/(Пиксели*Кадры)                      : 0.138
Размер потока                            : 1,80 Гбайт (86%)
Библиотека кодирования                   : x264 core 130 r2274bm c832fe9
Настройки программы                      : cabac=1 / ref=3 / deblock=1:-1:-1 / analyse=0x3:0x113 / me=hex / subme=7 / psy=1 / psy_rd=1.00:0.15 / mixed_ref=1 / me_range=16 / chroma_me=1 / trellis=1 / 8x8dct=1 / cqm=0 / deadzone=21,11 / fast_pskip=1 / chroma_qp_offset=-3 / threads=12 / lookahead_threads=2 / sliced_threads=0 / nr=0 / decimate=1 / interlaced=0 / bluray_compat=0 / constrained_intra=0 / bframes=3 / b_pyramid=2 / b_adapt=1 / b_bias=0 / direct=1 / weightb=1 / open_gop=0 / weightp=2 / keyint=250 / keyint_min=25 / scenecut=40 / intra_refresh=0 / rc_lookahead=40 / rc=abr / mbtree=1 / bitrate=2750 / ratetol=1.0 / qcomp=0.60 / qpmin=0 / qpmax=69 / qpstep=4 / ip_ratio=1.40 / aq=1:1.00
Default                                  : Да
Forced                                   : Нет

Аудио #1
Идентификатор                            : 2
Формат                                   : AC-3
Формат/Информация                        : Audio Coding 3
Расширение режима                        : CM (complete main)
Параметр Endianness формата              : Big
Идентификатор кодека                     : A_AC3
Продолжительность                        : 1 ч. 37 м.
Вид битрейта                             : Постоянный
Битрейт                                  : 192 Кбит/сек
Каналы                                   : 2 канала
Расположение каналов                     : Front: L R
Частота                                  : 48,0 КГц
Битовая глубина                          : 16 бит
Метод сжатия                             : С потерями
Размер потока                            : 134 Мбайт (6%)
Default                                  : Да
Forced                                   : Нет

Аудио #2
Идентификатор                            : 3
Формат                                   : AC-3
Формат/Информация                        : Audio Coding 3
Расширение режима                        : CM (complete main)
Параметр Endianness формата              : Big
Идентификатор кодека                     : A_AC3
Продолжительность                        : 1 ч. 37 м.
Вид битрейта                             : Постоянный
Битрейт                                  : 192 Кбит/сек
Каналы                                   : 2 канала
Расположение каналов                     : Front: L R
Частота                                  : 44,1 КГц
Битовая глубина                          : 16 бит
Метод сжатия                             : С потерями
Размер потока                            : 134 Мбайт (6%)
Язык                                     : English
Default                                  : Нет
Forced                                   : Нет
Скриншоты:

загрузка...
Правила, инструкции, FAQ!!!
Торрент  Добавлен [18 сен 2014, 13:38] Скачать торрент
Скачать торрент
[ Размер 11.35 КБ / Просмотров 21 ]

Статус
Проверен 
 
Размер  2.1 ГБ
Приватный: Нет (DHT включён)
.torrent скачан  0
Как залить торрент? | Как скачать Torrent? | Как смотреть и слушать онлайн?  


     Отправить личное сообщение
   
Страница 1 из 1
Показать сообщения за:  Поле сортировки  
Начать новую тему Ответить на тему

   Похожие торренты   Автор   Ответы   Просмотры   Последнее сообщение 
В этой теме нет новых непрочитанных сообщений. Скачать торрент Проверен Посвященный / The Giver (2014) HDTVRip | Чистый звук

в форуме Фантастика, Фэнтези, Размер: 1.37 ГБ, Здоровье: 100%

Anonymous

0
2|0

545
2

16 сен 2014, 21:48

Anonymous Перейти к последнему сообщению

В этой теме нет новых непрочитанных сообщений. Скачать торрент Проверен Посвященный / The Giver (2014) BDRip [576p] iPad

в форуме Фильмы для iPod, iPhone, iPad, Размер: 2.42 ГБ, Здоровье: 0%

Anonymous

0
0|0

62
0

13 дек 2014, 00:12

Anonymous Перейти к последнему сообщению

В этой теме нет новых непрочитанных сообщений. Скачать торрент Проверен Торжественный Марш, Посвященный 74-й Годовщине Парада 7 Ноября 1941 года [Москва, Красная Площадь] (2015) HDTVRip 720p

в форуме Документальные, Размер: 1.33 ГБ, Здоровье: 100%

Anonymous

0
47|9

195
47

08 ноя 2015, 03:12

Anonymous Перейти к последнему сообщению

В этой теме нет новых непрочитанных сообщений. Скачать торрент Проверен Motorhead - Get Back In Line (Live at Conan 26.01.2011) [2011, Hard Rock, HDTVRip 720p]

в форуме Концерты (HD-Video), Размер: 216.39 МБ, Здоровье: 0%

Anonymous

0
0|0

0
0

23 окт 2016, 11:55

Anonymous Перейти к последнему сообщению

В этой теме нет новых непрочитанных сообщений. 3 дня на убийство / 3 Days to Kill (2014) BDRip [720p] [Extended Cut] [Line]

в форуме Новинки кино, Размер: 5.31 ГБ, Здоровье: 100%

Anonymous

0
18|4

1816
0

17 май 2014, 19:13

Anonymous Перейти к последнему сообщению



Сейчас этот форум просматривают: нет зарегистрированных пользователей и гости: 1


Вы не можете начинать темы
Вы не можете отвечать на сообщения
Вы не можете редактировать свои сообщения
Вы не можете удалять свои сообщения
Вы не можете добавлять вложения

Перейти:  

!ВНИМАНИЕ!
 Ресурс не предоставляет электронные версии произведений, а занимается лишь коллекционированием и каталогизацией ссылок, присылаемых и публикуемых на форуме нашими читателями. Если вы являетесь правообладателем какого-либо представленного материала и не желаете чтобы ссылка на него находилась в нашем каталоге, свяжитесь с нами и мы незамедлительно удалим её. Файлы для обмена на трекере предоставлены пользователями сайта, и администрация не несёт ответственности за их содержание. Просьба не заливать файлы, защищенные авторскими правами, а также файлы нелегального содержания!