На всех торрентах на трекере установлена скидка на скачивание в размере 100 процентов(а).
 Возможность скачивания торрента НЕ зависит от ограничений при низком ратио, низком аплоаде, требуемом ратио или требуемом аплоаде.


Начать новую тему Ответить на тему
Статистика раздачи
Размер: 6.21 ГБ | Добавлен: 18 сен 2014, 12:57 | Скачали: 137
Сидеров: 10  [0 байт/сек]    Личеров: 4  [0 байт/сек]
Пред. тема | След. тема 

Автор
Сообщение

СообщениеДобавлено: 18 сен 2014, 12:57 

Название: Стиратель
Оригинальное название: Eraser
Год выпуска: 1996
Страна: США
Жанр: боевик, триллер, драма, криминал, детектив, ...
Продолжительность: 01:54:31
Перевод: Профессиональный (дублированный)


Режиссер: Чак Рассел
Продюссер: Энн Копельсон, Арнольд Копельсон, Стивен Браун, ...


В ролях:
Арнольд Шварценеггер (Arnold Schwarzenegger), Джеймс Каан (James Caan), Ванесса Уильямс (Vanessa Williams), Джеймс Коберн (James Coburn), Роберт Пасторелли (Robert Pastorelli), Джеймс Кромуэлл (James Cromwell), Дэнни Нуччи (Danny Nucci), Энди Романо (Andy Romano), Ник Чинланд (Nick Chinlund), Майкл Пападжон (Michael Papajohn), Джо Витерелли (Joe Viterelli), Марк Ролстон (Mark Rolston), Джон Слэттери (John Slattery), Роберт Миранда (Robert Miranda), Рома Маффиа (Roma Maffia), Тони Лонго (Tony Longo), Джерри Бекер (Gerry Becker), Джон Снайдер (John Snyder), Мелора Уолтерс (Melora Walters), Олек Крупа (Olek Krupa)


Описание:
Джон Крюгер «стирает» из прошлого и настоящего все следы людей, находящихся под охраной Программы Защиты Свидетелей. Ему надо защищать женщину — ее играет Ванесса Уильямс, — которая готова разоблачить сделку по продаже преступникам нового супероружия. Крюгер должен спасти и ее и себя, и начинается марафон не на жизнь, а на смерть, где ему предстоит прыгать с самолета вслед за парашютом, сражаться с аллигаторами, преодолевать суперсовременные системы безопасности и противостоять киллерам с новейшим оружием.




Качество: BDRip.1080p
Формат: MKV
Видео кодек: H.264
Аудио кодек: AC3
Видео: 1920x800 (2.40:1), 23.976 fps, AVC, 5 083 Kbps
Аудио: AC3, 384 Kbps, 48.0 KHz, 6 ch
Субтитры: Russian (UTF-8), English (UTF-8)

Отдельно в папке:
1)AC3, 192 Kbps, 48.0 KHz, 2 ch (Dubl.Вариус)
2)AC3, 192 Kbps, 48.0 KHz, 2 ch (MVO.RenTV)
3)AC3, 384 Kbps, 48.0 KHz, 6 ch (MVO.Карусель)
4)AC3, 384 Kbps, 48.0 KHz, 6 ch (MVO.HTV)
5)AC3, 384 Kbps, 48.0 KHz, 6 ch (MVO.Ukrainian)
6)AC3, 384 Kbps, 48.0 KHz, 6 ch (AVO.Гаврилов)
7)AC3, 384 Kbps, 48.0 KHz, 6 ch (English)










ЛОГ :
-[NoImage] x264 [info]: frame I:1153 Avg QP:18.97 size:121867
-[NoImage] x264 [info]: frame P:39724 Avg QP:20.60 size: 47125
-[NoImage] x264 [info]: frame B:123880 Avg QP:22.90 size: 18943

General
Complete name : Stiratel.1996.BDRip.1080p.mkv
Format : Matroska
File size : 4.37 GiB
Duration : 1h 54mn
Overall bit rate : 5 461 Kbps
Encoded date : UTC 2012-06-10 08:28:09
Writing application : mkvmerge v5.3.0 ('I could have danced') built on Feb 9 2012 10:38:07
Writing library : libebml v1.2.3 + libmatroska v1.3.0

Video
ID : 1
Format : AVC
Format/Info : Advanced Video Codec
Format profile : High@L4.1
Format settings, CABAC : Yes
Format settings, ReFrames : 5 frames
Muxing mode : Container profile=Unknown@4.1
Codec ID : V_MPEG4/ISO/AVC
Duration : 1h 54mn
Bit rate : 5 083 Kbps
Width : 1 920 pixels
Height : 800 pixels
Display aspect ratio : 2.40:1
Frame rate : 23.976 fps
Color space : YUV
Chroma subsampling : 4:2:0
Bit depth : 8 bits
Scan type : Progressive
Bits/(Pixel*Frame) : 0.138
Stream size : 3.97 GiB (91%)
Writing library : x264 core 125 r2200 999b753
Encoding settings : cabac=1 / ref=5 / deblock=1:0:0 / analyse=0x3:0x133 / me=umh / subme=10 / psy=1 / psy_rd=1.00:0.00 / mixed_ref=1 / me_range=32 / chroma_me=1 / trellis=2 / 8x8dct=1 / cqm=0 / deadzone=21,11 / fast_pskip=0 / chroma_qp_offset=-2 / threads=6 / lookahead_threads=1 / sliced_threads=0 / nr=0 / decimate=1 / interlaced=0 / bluray_compat=0 / constrained_intra=0 / bframes=10 / b_pyramid=2 / b_adapt=2 / b_bias=0 / direct=3 / weightb=1 / open_gop=0 / weightp=2 / keyint=240 / keyint_min=24 / scenecut=40 / intra_refresh=0 / rc=2pass / mbtree=0 / bitrate=5083 / ratetol=2.0 / qcomp=1.00 / qpmin=10 / qpmax=51 / qpstep=4 / cplxblur=20.0 / qblur=0.5 / ip_ratio=1.40 / pb_ratio=1.30 / aq=1:1.00
Color primaries : BT.709-5, BT.1361, IEC 61966-2-4, SMPTE RP177
Transfer characteristics : BT.709-5, BT.1361
Matrix coefficients : BT.709-5, BT.1361, IEC 61966-2-4 709, SMPTE RP177

Audio
ID : 2
Format : AC-3
Format/Info : Audio Coding 3
Mode extension : CM (complete main)
Codec ID : A_AC3
Duration : 1h 54mn
Bit rate mode : Constant
Bit rate : 384 Kbps
Channel(s) : 6 channels
Channel positions : Front: L C R, Side: L R, LFE
Sampling rate : 48.0 KHz
Bit depth : 16 bits
Video delay : 13ms
Stream size : 315 MiB (7%)
Title : Дубляж
Language : Russian

Text #1
ID : 3
Format : UTF-8
Codec ID : S_TEXT/UTF8
Codec ID/Info : UTF-8 Plain Text
Language : Russian

Text #2
ID : 4
Format : UTF-8
Codec ID : S_TEXT/UTF8
Codec ID/Info : UTF-8 Plain Text

Menu
00:00:00.000 : en:00:00:00.000
00:02:42.412 : en:00:02:42.412
00:04:20.260 : en:00:04:20.260
00:08:33.221 : en:00:08:33.221
00:11:30.440 : en:00:11:30.440
00:12:28.831 : en:00:12:28.831
00:17:55.741 : en:00:17:55.741
00:20:39.447 : en:00:20:39.447
00:23:16.687 : en:00:23:16.687
00:24:24.129 : en:00:24:24.129
00:30:19.317 : en:00:30:19.317
00:31:32.140 : en:00:31:32.140
00:33:34.679 : en:00:33:34.679
00:34:53.174 : en:00:34:53.174
00:38:50.828 : en:00:38:50.828
00:43:26.270 : en:00:43:26.270
00:46:46.429 : en:00:46:46.429
00:48:19.146 : en:00:48:19.146
00:51:01.558 : en:00:51:01.558
00:53:34.086 : en:00:53:34.086
00:55:16.855 : en:00:55:16.855
00:57:15.265 : en:00:57:15.265
00:58:17.119 : en:00:58:17.119
01:00:56.820 : en:01:00:56.820
01:01:37.277 : en:01:01:37.277
01:03:38.148 : en:01:03:38.148
01:04:39.626 : en:01:04:39.626
01:06:06.671 : en:01:06:06.671
01:09:13.566 : en:01:09:13.566
01:11:58.648 : en:01:11:58.648
01:13:19.061 : en:01:13:19.061
01:16:30.377 : en:01:16:30.377
01:20:20.691 : en:01:20:20.691
01:23:31.924 : en:01:23:31.924
01:26:06.078 : en:01:26:06.078
01:27:52.642 : en:01:27:52.642
01:29:44.421 : en:01:29:44.421
01:33:09.793 : en:01:33:09.793
01:34:50.435 : en:01:34:50.435
01:37:18.958 : en:01:37:18.958
01:39:22.039 : en:01:39:22.039
01:42:31.645 : en:01:42:31.645
01:44:54.288 : en:01:44:54.288
01:49:29.897 : en:01:49:29.897[/code]






Релиз от:
загрузка...
Правила, инструкции, FAQ!!!
Торрент  Добавлен [18 сен 2014, 12:57] Скачать торрент
Скачать торрент
[ Размер 32.12 КБ / Просмотров 7 ]

Статус
Проверен 
 
Размер  6.21 ГБ
Приватный: Нет (DHT включён)
.torrent скачан  137
Как залить торрент? | Как скачать Torrent? | Как смотреть и слушать онлайн?  


     Отправить личное сообщение
   
Страница 1 из 1
Показать сообщения за:  Поле сортировки  
Начать новую тему Ответить на тему

   Похожие торренты   Автор   Ответы   Просмотры   Последнее сообщение 
В этой теме нет новых непрочитанных сообщений. Скачать торрент Проверен Стиратель / Eraser (1996) BDRip 720p

в форуме 720p | 1080p, Размер: 2.9 ГБ, Здоровье: 100%

Anonymous

0
27|13

31
458

18 сен 2014, 12:48

Anonymous Перейти к последнему сообщению

В этой теме нет новых непрочитанных сообщений. Скачать торрент Проверен Стиратель / Eraser (1996) HDRip | Лицензия

в форуме Боевики, Размер: 1.46 ГБ, Здоровье: 100%

Anonymous

0
55|2

47
226

18 сен 2014, 12:38

Anonymous Перейти к последнему сообщению

В этой теме нет новых непрочитанных сообщений. Скачать торрент Проверен На игле / Trainspotting (1996) BDRip 1080p

в форуме 720p | 1080p, Размер: 8.69 ГБ, Здоровье: 100%

Anonymous

0
27|5

55
124

06 сен 2014, 22:16

Anonymous Перейти к последнему сообщению

В этой теме нет новых непрочитанных сообщений. Скачать торрент Проверен Мужество в бою / Courage Under Fire (1996) BDRip 1080p | P, A

в форуме 720p | 1080p, Размер: 10.07 ГБ, Здоровье: 38%

Гость

0
5|13

55
16

11 апр 2016, 20:30

Гость Перейти к последнему сообщению

В этой теме нет новых непрочитанных сообщений. Скачать торрент Проверен Бегущая мишень / Moving Target (1996) BDRip [1080p]

в форуме 720p | 1080p, Размер: 4.21 ГБ, Здоровье: 100%

Гость

0
22|3

55
0

25 янв 2015, 11:45

Гость Перейти к последнему сообщению



Сейчас этот форум просматривают: нет зарегистрированных пользователей и гости: 1


Вы не можете начинать темы
Вы не можете отвечать на сообщения
Вы не можете редактировать свои сообщения
Вы не можете удалять свои сообщения
Вы не можете добавлять вложения

Перейти:  

!ВНИМАНИЕ!
 Ресурс не предоставляет электронные версии произведений, а занимается лишь коллекционированием и каталогизацией ссылок, присылаемых и публикуемых на форуме нашими читателями. Если вы являетесь правообладателем какого-либо представленного материала и не желаете чтобы ссылка на него находилась в нашем каталоге, свяжитесь с нами и мы незамедлительно удалим её. Файлы для обмена на трекере предоставлены пользователями сайта, и администрация не несёт ответственности за их содержание. Просьба не заливать файлы, защищенные авторскими правами, а также файлы нелегального содержания!