На всех торрентах на трекере установлена скидка на скачивание в размере 100 процентов(а).
 Возможность скачивания торрента НЕ зависит от ограничений при низком ратио, низком аплоаде, требуемом ратио или требуемом аплоаде.


Начать новую тему Ответить на тему
Статистика раздачи
Размер: 7.81 ГБ | Добавлен: 18 сен 2014, 08:00 | Скачали: 92
Сидеров: 32  [0 байт/сек]    Личеров: 30  [0 байт/сек]
Пред. тема | След. тема 

Автор
Сообщение

СообщениеДобавлено: 18 сен 2014, 08:00 

Название: Морской пехотинец
Оригинальное название: The Marine
Год выхода: 2006
Жанр: Боевик, триллер, драма
Режиссер: Джон Бонито

В ролях: Джон Сина, Роберт Патрик, Келли Карлсон, Энтони Рэй Паркер, Эбигейл Бьянка, Джером Элерс, Ману Беннетт, Дэймон Гибсон, Дрю Пауэлл, Фрэнк Карлопио, Фирэсс Дирани, Реми Бродвэй, Джефф Чейз, Кристина Линдли, Алан Б. МакЭлрой, Лоуренс Брюлс

О фильме:
Уволенный в запас против своей воли, по возвращению из Ирака, он сталкивается с серьезной проблемой. Его красавицу жену похищает беспощадная банда охотников за драгоценностями, под руководством страшного убийцы. Теперь Джону Твайтону предстоит спасти ее, используя весь опыт ведения боевых действий.



Страна: США, 20th Century Fox Film Corporation, WWE Films
Продолжительность: 01:31:46
Перевод: Дублированный / Профессиональный многоголосый / Авторский одноголосый (Немахов)

Кодек: H.264
Качество: BDRip 1080p
Видео: MPEG-4 AVC, 9100 Кбит/с, 1920х1036, 23.976 кадр/с
Звук: Русский (AC3, 6 ch, 384 Кбит/с), (AC3, 6 ch, 448 Кбит/с), (DTS, 6 ch, 768 Кбит/с), английский (DTS, 6 ch, 1509 Кбит/с)
Субтитры: Русские, английские

Полное имя : E:Раздачи_EThe.Marine.2006.x264.BDRip.1080p.NovaLan.mkv
Формат : Matroska
Версия формата : Version 4 / Version 2
Размер файла : 7,81 Гбайт
Продолжительность : 1 ч. 31 м.
Общий поток : 12,2 Мбит/сек
Название фильма : The Marine 2006 - NovaLan
Дата кодирования : UTC 2014-09-17 21:54:46
Программа кодирования : mkvmerge v7.2.0 ('On Every Street') 64bit built on Sep 13 2014 15:52:10
Библиотека кодирования : libebml v1.3.0 + libmatroska v1.4.1
DURATION : 01:22:30.590000000
NUMBER_OF_FRAMES : 638
NUMBER_OF_BYTES : 23021
_STATISTICS_WRITING_APP : mkvmerge v7.2.0 ('On Every Street') 64bit built on Sep 13 2014 15:52:10
_STATISTICS_WRITING_DATE_UTC : 2014-09-17 21:54:46
_STATISTICS_TAGS : BPS DURATION NUMBER_OF_FRAMES NUMBER_OF_BYTES

Видео
Идентификатор : 1
Формат : AVC
Формат/Информация : Advanced Video Codec
Профиль формата : High@L4.1
Параметр CABAC формата : Да
Параметр ReFrames формата : 4 кадра
Идентификатор кодека : V_MPEG4/ISO/AVC
Продолжительность : 1 ч. 31 м.
Битрейт : 9100 Кбит/сек
Ширина : 1920 пикселей
Высота : 1036 пикселей
Соотношение сторон : 1,85:1
Частота кадров : 23,976 кадра/сек
Цветовое пространство : YUV
Субдискретизация насыщенности : 4:2:0
Битовая глубина : 8 бит
Тип развёртки : Прогрессивная
Бит/(Пиксели*Кадры) : 0.191
Размер потока : 5,67 Гбайт (73%)
Заголовок : Sergei7721
Библиотека кодирования : x264 core 133 r2334 a3ac64b
Настройки программы : cabac=1 / ref=4 / deblock=1:-1:-1 / analyse=0x3:0x113 / me=umh / subme=11 / psy=1 / psy_rd=1.00:0.20 / mixed_ref=1 / me_range=24 / chroma_me=1 / trellis=2 / 8x8dct=1 / cqm=0 / deadzone=21,11 / fast_pskip=0 / chroma_qp_offset=-3 / threads=12 / lookahead_threads=1 / sliced_threads=0 / nr=0 / decimate=0 / interlaced=0 / bluray_compat=0 / constrained_intra=0 / bframes=6 / b_pyramid=2 / b_adapt=2 / b_bias=0 / direct=3 / weightb=1 / open_gop=0 / weightp=2 / keyint=240 / keyint_min=23 / scenecut=40 / intra_refresh=0 / rc_lookahead=40 / rc=2pass / mbtree=0 / bitrate=9100 / ratetol=1.0 / qcomp=0.60 / qpmin=0 / qpmax=69 / qpstep=4 / cplxblur=20.0 / qblur=0.5 / vbv_maxrate=50000 / vbv_bufsize=62500 / nal_hrd=none / ip_ratio=1.40 / pb_ratio=1.30 / aq=1:1.00
Default : Да
Forced : Нет
DURATION : 01:31:40.162000000
NUMBER_OF_FRAMES : 131872
NUMBER_OF_BYTES : 6250779030
_STATISTICS_WRITING_APP : mkvmerge v7.2.0 ('On Every Street') 64bit built on Sep 13 2014 15:52:10
_STATISTICS_WRITING_DATE_UTC : 2014-09-17 21:54:46
_STATISTICS_TAGS : BPS DURATION NUMBER_OF_FRAMES NUMBER_OF_BYTES

Аудио #1
Идентификатор : 2
Формат : AC-3
Формат/Информация : Audio Coding 3
Расширение режима : CM (complete main)
Параметр Endianness формата : Big
Идентификатор кодека : A_AC3
Продолжительность : 1 ч. 31 м.
Вид битрейта : Постоянный
Битрейт : 384 Кбит/сек
Каналы : 6 каналов
Расположение каналов : Front: L C R, Side: L R, LFE
Частота : 48,0 КГц
Битовая глубина : 16 бит
Метод сжатия : С потерями
Размер потока : 252 Мбайт (3%)
Язык : Russian
Default : Да
Forced : Нет

Аудио #2
Идентификатор : 3
Формат : AC-3
Формат/Информация : Audio Coding 3
Расширение режима : CM (complete main)
Параметр Endianness формата : Big
Идентификатор кодека : A_AC3
Продолжительность : 1 ч. 31 м.
Вид битрейта : Постоянный
Битрейт : 448 Кбит/сек
Каналы : 6 каналов
Расположение каналов : Front: L C R, Side: L R, LFE
Частота : 48,0 КГц
Битовая глубина : 16 бит
Метод сжатия : С потерями
Размер потока : 294 Мбайт (4%)
Язык : Russian
Default : Нет
Forced : Нет

Аудио #3
Идентификатор : 4
Формат : DTS
Формат/Информация : Digital Theater Systems
Идентификатор кодека : A_DTS
Продолжительность : 1 ч. 31 м.
Вид битрейта : Постоянный
Битрейт : 755 Кбит/сек
Каналы : 6 каналов
Расположение каналов : Front: L C R, Side: L R, LFE
Частота : 48,0 КГц
Битовая глубина : 24 бит
Метод сжатия : С потерями
Размер потока : 495 Мбайт (6%)
Язык : Russian
Default : Нет
Forced : Нет

Аудио #4
Идентификатор : 5
Формат : DTS
Формат/Информация : Digital Theater Systems
Идентификатор кодека : A_DTS
Продолжительность : 1 ч. 31 м.
Вид битрейта : Постоянный
Битрейт : 1510 Кбит/сек
Каналы : 6 каналов
Расположение каналов : Front: L C R, Side: L R, LFE
Частота : 48,0 КГц
Битовая глубина : 24 бит
Метод сжатия : С потерями
Размер потока : 991 Мбайт (12%)
Язык : English
Default : Нет
Forced : Нет

Текст #1
Идентификатор : 6
Формат : UTF-8
Идентификатор кодека : S_TEXT/UTF8
Идентификатор кодека/Информация : UTF-8 Plain Text
Язык : Russian
Default : Нет
Forced : Нет

Текст #2
Идентификатор : 7
Формат : UTF-8
Идентификатор кодека : S_TEXT/UTF8
Идентификатор кодека/Информация : UTF-8 Plain Text
Язык : Russian
Default : Нет
Forced : Нет

Текст #3
Идентификатор : 8
Формат : UTF-8
Идентификатор кодека : S_TEXT/UTF8
Идентификатор кодека/Информация : UTF-8 Plain Text
Язык : English
Default : Нет
Forced : Нет

Меню
00:00:00.000 : en:00:00:00.000
00:05:28.870 : en:00:05:28.870
00:07:51.638 : en:00:07:51.638
00:14:20.234 : en:00:14:20.234
00:18:35.031 : en:00:18:35.031
00:20:36.861 : en:00:20:36.861
00:23:08.387 : en:00:23:08.387
00:25:13.971 : en:00:25:13.971
00:28:10.480 : en:00:28:10.480
00:35:06.688 : en:00:35:06.688
00:42:59.619 : en:00:42:59.619
00:48:16.644 : en:00:48:16.644
00:54:36.523 : en:00:54:36.523
00:59:33.737 : en:00:59:33.737
01:04:23.651 : en:01:04:23.651
01:09:27.413 : en:01:09:27.413
01:14:54.365 : en:01:14:54.365
01:17:21.887 : en:01:17:21.887
01:19:41.068 : en:01:19:41.068
01:23:48.690 : en:01:23:48.690
01:31:39.911 : en:01:31:39.911


Релиз группы NovaLan
Автор релиза Sergei7721




загрузка...
Правила, инструкции, FAQ!!!
Торрент  Добавлен [18 сен 2014, 08:00] Скачать торрент
Скачать торрент
[ Размер 39.55 КБ / Просмотров 9 ]

Статус
Проверен 
 
Размер  7.81 ГБ
Приватный: Нет (DHT включён)
.torrent скачан  92
Как залить торрент? | Как скачать Torrent? | Как смотреть и слушать онлайн?  


     Отправить личное сообщение
   
Страница 1 из 1
Показать сообщения за:  Поле сортировки  
Начать новую тему Ответить на тему

   Похожие торренты   Автор   Ответы   Просмотры   Последнее сообщение 
В этой теме нет новых непрочитанных сообщений. Скачать торрент Морской пехотинец / The Marine (Джон Бонито / John Bonito) [2006, США, боевик, триллер, драма, HDRip-AVC] Dub + Sub Rus + Original Eng

в форуме 720p | 1080p, Размер: 2.17 ГБ, Здоровье: 100%

Anonymous

0
4|1

85
1

06 фев 2014, 11:44

Anonymous Перейти к последнему сообщению

В этой теме нет новых непрочитанных сообщений. Скачать торрент Проверен Морской бой / Battleship (2012) BDRip 1080p от New-Team

в форуме 720p | 1080p, Размер: 13.87 ГБ, Здоровье: 100%

Anonymous

0
61|58

22
152

31 авг 2014, 17:09

Anonymous Перейти к последнему сообщению

В этой теме нет новых непрочитанных сообщений. Скачать торрент Проверен Морской бой / Battleship (2012) BDRemux 1080p

в форуме BD-Remux, Размер: 26.83 ГБ, Здоровье: 100%

Гость

0
102|78

205
42

20 апр 2015, 00:29

Гость Перейти к последнему сообщению

В этой теме нет новых непрочитанных сообщений. Скачать торрент Морской бой / Battleship (2012) BDRip | Лицензия

в форуме Фантастика, Фэнтези, Размер: 3 ГБ, Здоровье: 100%

Anonymous

0
585|66

28
8125

03 янв 2014, 13:07

Anonymous Перейти к последнему сообщению

В этой теме нет новых непрочитанных сообщений. Скачать торрент Проверен [MP4 960x540] На глубине морской 3D / Under the Sea 3D (2009) BDRip

в форуме Видео для смартфонов и КПК, Размер: 475.12 МБ, Здоровье: ???%

Anonymous

0
0|1

29
0

25 окт 2014, 23:19

Anonymous Перейти к последнему сообщению



Сейчас этот форум просматривают: нет зарегистрированных пользователей и гости: 1


Вы не можете начинать темы
Вы не можете отвечать на сообщения
Вы не можете редактировать свои сообщения
Вы не можете удалять свои сообщения
Вы не можете добавлять вложения

Перейти:  

!ВНИМАНИЕ!
 Ресурс не предоставляет электронные версии произведений, а занимается лишь коллекционированием и каталогизацией ссылок, присылаемых и публикуемых на форуме нашими читателями. Если вы являетесь правообладателем какого-либо представленного материала и не желаете чтобы ссылка на него находилась в нашем каталоге, свяжитесь с нами и мы незамедлительно удалим её. Файлы для обмена на трекере предоставлены пользователями сайта, и администрация не несёт ответственности за их содержание. Просьба не заливать файлы, защищенные авторскими правами, а также файлы нелегального содержания!