На всех торрентах на трекере установлена скидка на скачивание в размере 100 процентов(а).
 Возможность скачивания торрента НЕ зависит от ограничений при низком ратио, низком аплоаде, требуемом ратио или требуемом аплоаде.


Начать новую тему Ответить на тему
Статистика раздачи
Размер: 7.12 ГБ | Добавлен: 16 сен 2014, 11:32 | Скачали: 1457
Сидеров: 375  [0 байт/сек]    Личеров: 70  [0 байт/сек]
Пред. тема | След. тема 

Автор
Сообщение

СообщениеДобавлено: 16 сен 2014, 11:32 

Название: Большая афера
Оригинальное название: The Grand Seduction
Год выхода: 2013
Жанр: комедия, драма
Режиссер: Дон МакКеллар

В ролях: Брендан Глисон, Тейлор Китч, Лиэн Балабан, Гордон Пинсент, Анна Хопкинс, Ронда Роджерс, Джофф Адамс, Джон Бартлетт, Карли Бун

О фильме: Добро пожаловать в рай, где исполняются все желания! Маленький живописный городок у моря. Население: 120 отъявленных лжецов. И им очень нужен хороший доктор.



Выпущено: Канада / Max Films Productions Inc., Morag Loves Company Limited
Продолжительность: 01:53:08
Перевод: Профессиональный (многоголосый, закадровый) - Чистый звук

Качество: BDRip 1080p
Формат: MKV
Видео: MPEG4/AVC, 1920х1040 (1.85:1), 8173 Кбит/сек, 23.976 кадра/сек
Аудио 1: AC3, 2 канала, 192 Кбит/сек | Русский
Аудио 2: AC3, 6 каналов, 640 Кбит/сек | Английский
Субтитры: Английские (Full, SDH)
Навигация по главам: Есть
Общее
Уникальный идентификатор : 191577776176034738144748640237986067225 (0x9020899EF3873F1DBCABDBC94D393319)
Полное имя : The Grand Seduction. (2013) BDRip 1080p.mkv
Формат : Matroska
Версия формата : Version 2
Размер файла : 7,12 Гбайт
Продолжительность : 1 ч. 53 м.
Общий поток : 9007 Кбит/сек
Название фильма : The Grand Seduction. 2013
Дата кодирования : UTC 2014-09-15 20:08:23
Программа кодирования : mkvmerge v5.8.0 ('No Sleep / Pillow') built on Sep 2 2012 15:37:04
Библиотека кодирования : libebml v1.2.3 + libmatroska v1.3.0
Видео
Идентификатор : 1
Формат : AVC
Формат/Информация : Advanced Video Codec
Профиль формата : High@L4.1
Параметр CABAC формата : Да
Параметр ReFrames формата : 4 кадра
Идентификатор кодека : V_MPEG4/ISO/AVC
Продолжительность : 1 ч. 53 м.
Битрейт : 8173 Кбит/сек
Ширина : 1920 пикселей
Высота : 1040 пикселей
Соотношение сторон : 1,85:1
Режим частоты кадров : Постоянный
Частота кадров : 23,976 кадра/сек
Цветовое пространство : YUV
Субдискретизация насыщенности : 4:2:0
Битовая глубина : 8 бит
Тип развёртки : Прогрессивная
Бит/(Пиксели*Кадры) : 0.171
Размер потока : 6,32 Гбайт (89%)
Заголовок : AMIABLE
Библиотека кодирования : x264 core 142 r2479 dd79a61
Настройки программы : cabac=1 / ref=4 / deblock=1:-3:-3 / analyse=0x3:0x113 / me=umh / subme=8 / psy=1 / psy_rd=1.00:0.00 / mixed_ref=1 / me_range=16 / chroma_me=1 / trellis=1 / 8x8dct=1 / cqm=0 / deadzone=21,11 / fast_pskip=1 / chroma_qp_offset=-2 / threads=12 / lookahead_threads=2 / sliced_threads=0 / nr=0 / decimate=1 / interlaced=0 / bluray_compat=0 / constrained_intra=0 / bframes=3 / b_pyramid=2 / b_adapt=2 / b_bias=0 / direct=3 / weightb=1 / open_gop=0 / weightp=2 / keyint=240 / keyint_min=24 / scenecut=40 / intra_refresh=0 / rc_lookahead=50 / rc=2pass / mbtree=1 / bitrate=8173 / ratetol=1.0 / qcomp=0.60 / qpmin=0 / qpmax=69 / qpstep=4 / cplxblur=20.0 / qblur=0.5 / ip_ratio=1.40 / aq=1:1.00
Язык : English
Default : Да
Forced : Нет
Аудио #1
Идентификатор : 2
Формат : AC-3
Формат/Информация : Audio Coding 3
Расширение режима : CM (complete main)
Параметр Endianness формата : Big
Идентификатор кодека : A_AC3
Продолжительность : 1 ч. 53 м.
Вид битрейта : Постоянный
Битрейт : 192 Кбит/сек
Каналы : 2 канала
Расположение каналов : Front: L R
Частота : 48,0 КГц
Битовая глубина : 16 бит
Метод сжатия : С потерями
Размер потока : 155 Мбайт (2%)
Заголовок : Rus | Line
Язык : Russian
Default : Да
Forced : Нет
Аудио #2
Идентификатор : 3
Формат : AC-3
Формат/Информация : Audio Coding 3
Расширение режима : CM (complete main)
Параметр Endianness формата : Big
Идентификатор кодека : A_AC3
Продолжительность : 1 ч. 53 м.
Вид битрейта : Постоянный
Битрейт : 640 Кбит/сек
Каналы : 6 каналов
Расположение каналов : Front: L C R, Side: L R, LFE
Частота : 48,0 КГц
Битовая глубина : 16 бит
Метод сжатия : С потерями
Размер потока : 518 Мбайт (7%)
Заголовок : Eng
Язык : English
Default : Нет
Forced : Нет
Текст #1
Идентификатор : 4
Формат : UTF-8
Идентификатор кодека : S_TEXT/UTF8
Идентификатор кодека/Информация : UTF-8 Plain Text
Заголовок : Full
Язык : English
Default : Нет
Forced : Нет
Текст #2
Идентификатор : 5
Формат : UTF-8
Идентификатор кодека : S_TEXT/UTF8
Идентификатор кодека/Информация : UTF-8 Plain Text
Заголовок : SDH
Язык : English
Default : Нет
Forced : Нет
Меню
00:00:00.000 : en:00:00:00.000
00:08:31.428 : en:00:08:31.428
00:15:51.033 : en:00:15:51.033
00:21:00.634 : en:00:21:00.634
00:29:02.074 : en:00:29:02.074
00:36:40.865 : en:00:36:40.865
00:45:05.703 : en:00:45:05.703
00:51:12.152 : en:00:51:12.152
00:58:23.750 : en:00:58:23.750
01:06:46.586 : en:01:06:46.586
01:12:34.100 : en:01:12:34.100
01:20:29.241 : en:01:20:29.241
01:27:37.169 : en:01:27:37.169
01:32:48.021 : en:01:32:48.021
01:40:28.940 : en:01:40:28.940
01:49:11.044 : en:01:49:11.044


Релиз от:
загрузка...
Правила, инструкции, FAQ!!!
Торрент  Добавлен [16 сен 2014, 11:32] Скачать торрент
Скачать торрент
[ Размер 18.46 КБ / Просмотров 15 ]

Статус
Проверен 
 
Размер  7.12 ГБ
Приватный: Нет (DHT включён)
.torrent скачан  1457
Как залить торрент? | Как скачать Torrent? | Как смотреть и слушать онлайн?  


     Отправить личное сообщение
   
Страница 1 из 1
Показать сообщения за:  Поле сортировки  
Начать новую тему Ответить на тему

   Похожие торренты   Автор   Ответы   Просмотры   Последнее сообщение 
В этой теме нет новых непрочитанных сообщений. Скачать торрент Проверен Большая афера / The Grand Seduction (2013) BDRip 720p | P | лицензия

в форуме 720p | 1080p, Размер: 4.72 ГБ, Здоровье: 100%

Anonymous

0
123|31

41
334

25 сен 2014, 16:45

Anonymous Перейти к последнему сообщению

В этой теме нет новых непрочитанных сообщений. Скачать торрент Проверен Большая афера / The Grand Seduction (2013) HDTVRip | P

в форуме Комедии, Размер: 1.37 ГБ, Здоровье: 100%

Anonymous

0
254|2

61
17

12 сен 2014, 00:03

Anonymous Перейти к последнему сообщению

В этой теме нет новых непрочитанных сообщений. Афера по-американски / American Hustle (2013) BDRip-AVC | Чистый звук

в форуме Новинки кино, Размер: 3.21 ГБ, Здоровье: 0%

Anonymous

0
0|0

64
0

15 мар 2014, 09:18

Anonymous Перейти к последнему сообщению

В этой теме нет новых непрочитанных сообщений. Скачать торрент Афера по-американски / American Hustle (2013) HDRip | D | Чистый звук

в форуме Драмы, Мелодрамы, Размер: 1.45 ГБ, Здоровье: 100%

Anonymous

0
31|0

59
1

15 мар 2014, 13:28

Anonymous Перейти к последнему сообщению

В этой теме нет новых непрочитанных сообщений. Скачать торрент Проверен Хоть раз в жизни / Begin again (2013) BDRip 1080p | Чистый звук

в форуме 720p | 1080p, Размер: 7.79 ГБ, Здоровье: 100%

Anonymous

0
211|68

45
656

08 окт 2014, 19:34

Anonymous Перейти к последнему сообщению



Сейчас этот форум просматривают: нет зарегистрированных пользователей и гости: 3


Вы не можете начинать темы
Вы не можете отвечать на сообщения
Вы не можете редактировать свои сообщения
Вы не можете удалять свои сообщения
Вы не можете добавлять вложения

Перейти:  

!ВНИМАНИЕ!
 Ресурс не предоставляет электронные версии произведений, а занимается лишь коллекционированием и каталогизацией ссылок, присылаемых и публикуемых на форуме нашими читателями. Если вы являетесь правообладателем какого-либо представленного материала и не желаете чтобы ссылка на него находилась в нашем каталоге, свяжитесь с нами и мы незамедлительно удалим её. Файлы для обмена на трекере предоставлены пользователями сайта, и администрация не несёт ответственности за их содержание. Просьба не заливать файлы, защищенные авторскими правами, а также файлы нелегального содержания!