На всех торрентах на трекере установлена скидка на скачивание в размере 100 процентов(а).
 Возможность скачивания торрента НЕ зависит от ограничений при низком ратио, низком аплоаде, требуемом ратио или требуемом аплоаде.


Начать новую тему Ответить на тему
Статистика раздачи
Размер: 10 ГБ | Добавлен: 10 сен 2014, 08:27 | Скачали: 199
Сидеров: 40  [0 байт/сек]    Личеров: 2  [0 байт/сек]
Пред. тема | След. тема 

Автор
Сообщение

СообщениеДобавлено: 10 сен 2014, 08:27 

Название: Грязь
Оригинальное название: Filth
Год выхода: 2013
Жанр: криминал, драма, комедия
Режиссер: Джон С. Бейрд / Jon S. Baird

В ролях: Джеймс МакЭвой, Джейми Белл, Эдди Марсан, Джим Бродбент, Имоджен Путс, Шона МакДональд, Ширли Хендерсон, Джон Сессионс, Гари Льюис, Иман Эллиотт

О фильме:
Главный герой — продажный шотландский полицейский Брюс Робертсон, помешанный на сексе и кокаине. Ему бы надо расследовать убийство, но ему сильно мешают собственные странности, привычка разыгрывать коллег и беготня за девушками. За Робертсоном присматривают его напарник Рэй Леннокс и начальник Боб Тоал.



Страна: Великобритания
Продолжительность: 01:37:22
Перевод: Дублированный (лицензия), Авторский (одноголосый закадровый) Дмитрий Пучков aka Гоблин [Лицензия R5]


Кодек: MPEG-4 AVC (H264)
Качество: BDRip 1080p
Видео: 1920x816, 24fps, 13.2 Mbps
Субтитры: Русские(notabenoid), Английские, вшитые, отключаемые

Звук:
Аудио #1: Русский - Dolby AC3, 48000Hz, 6 ch,384kbps - (Дубляж)
Аудио #2: Русский - Dolby AC3, 48000Hz, 6ch, 384kbps - Авторский одноголосый (Гоблин)
Аудио #3: Английский - DTS, 48000Hz, 6ch, 768kbps - (оригинал)

General
Unique ID : 190511260187721199955640565022532362514 (0x8F532252A9E874D19786A1FEE900E112)
Complete name : D:Filth.2013.BDRip.1080p.mkv
Format : Matroska
Format version : Version 4 / Version 2
File size : 10.00 GiB
Duration : 1h 37mn
Overall bit rate : 14.7 Mbps
Movie name : Filth.2013.BluRay.1080p.DTS.x264-CHD
Encoded date : UTC 2014-09-09 09:15:32
Writing application : mkvmerge v7.1.0 ('Good Love') 32bit built on Jul 27 2014 12:59:18
Writing library : libebml v1.3.0 + libmatroska v1.4.1
_STATISTICS_WRITING_APP : mkvmerge v7.1.0 ('Good Love') 32bit built on Jul 27 2014 12:59:18
_STATISTICS_WRITING_DATE_UTC : 2014-09-09 09:15:32
_STATISTICS_TAGS : BPS DURATION NUMBER_OF_FRAMES NUMBER_OF_BYTES
DURATION : 01:31:04.362000000
NUMBER_OF_FRAMES : 1343
NUMBER_OF_BYTES : 58635

Video
ID : 1
Format : AVC
Format/Info : Advanced Video Codec
Format profile : High@L4.1
Format settings, CABAC : Yes
Format settings, ReFrames : 5 frames
Codec ID : V_MPEG4/ISO/AVC
Duration : 1h 37mn
Bit rate : 13.2 Mbps
Width : 1 920 pixels
Height : 816 pixels
Display aspect ratio : 2.35:1
Frame rate mode : Constant
Frame rate : 24.000 fps
Color space : YUV
Chroma subsampling : 4:2:0
Bit depth : 8 bits
Scan type : Progressive
Bits/(Pixel*Frame) : 0.351
Stream size : 8.75 GiB (88%)
Title : -=RUTOR.ORG=-
Writing library : x264 core 130 r2273 b3065e6
Encoding settings : cabac=1 / ref=5 / deblock=1:-3:-3 / analyse=0x3:0x113 / me=umh / subme=10 / psy=1 / psy_rd=1.05:0.10 / mixed_ref=1 / me_range=48 / chroma_me=1 / trellis=2 / 8x8dct=1 / cqm=0 / deadzone=21,11 / fast_pskip=0 / chroma_qp_offset=-2 / threads=12 / lookahead_threads=1 / sliced_threads=0 / nr=0 / decimate=1 / interlaced=0 / bluray_compat=0 / constrained_intra=0 / bframes=6 / b_pyramid=2 / b_adapt=2 / b_bias=0 / direct=3 / weightb=1 / open_gop=0 / weightp=2 / keyint=250 / keyint_min=24 / scenecut=40 / intra_refresh=0 / rc_lookahead=40 / rc=2pass / mbtree=0 / bitrate=13199 / ratetol=2.0 / qcomp=0.70 / qpmin=0 / qpmax=69 / qpstep=4 / cplxblur=20.0 / qblur=0.5 / vbv_maxrate=40000 / vbv_bufsize=30000 / nal_hrd=none / ip_ratio=1.40 / pb_ratio=1.30 / aq=2:1.00
Language : English
Default : No
Forced : No
_STATISTICS_WRITING_APP : mkvmerge v7.1.0 ('Good Love') 32bit built on Jul 27 2014 12:59:18
_STATISTICS_WRITING_DATE_UTC : 2014-09-09 09:15:32
_STATISTICS_TAGS : BPS DURATION NUMBER_OF_FRAMES NUMBER_OF_BYTES
DURATION : 01:37:22.366000000
NUMBER_OF_FRAMES : 140217
NUMBER_OF_BYTES : 9611269338

Audio #1
ID : 2
Format : AC-3
Format/Info : Audio Coding 3
Mode extension : CM (complete main)
Format settings, Endianness : Big
Codec ID : A_AC3
Duration : 1h 37mn
Bit rate mode : Constant
Bit rate : 384 Kbps
Channel(s) : 6 channels
Channel positions : Front: L C R, Side: L R, LFE
Sampling rate : 48.0 KHz
Bit depth : 16 bits
Compression mode : Lossy
Stream size : 267 MiB (3%)
Title : AC3.384Kbps (6ch) Russian (Дубляж)
Language : Russian
Default : Yes
Forced : No

Audio #2
ID : 3
Format : AC-3
Format/Info : Audio Coding 3
Mode extension : CM (complete main)
Format settings, Endianness : Big
Codec ID : A_AC3
Duration : 1h 37mn
Bit rate mode : Constant
Bit rate : 384 Kbps
Channel(s) : 6 channels
Channel positions : Front: L C R, Side: L R, LFE
Sampling rate : 48.0 KHz
Bit depth : 16 bits
Compression mode : Lossy
Stream size : 267 MiB (3%)
Title : AC3.384Kbps (6ch) Russian (AVO Гоблин)
Language : Russian
Default : No
Forced : No

Audio #3
ID : 4
Format : DTS
Format/Info : Digital Theater Systems
Mode : 16
Format settings, Endianness : Big
Codec ID : A_DTS
Duration : 1h 37mn
Bit rate mode : Constant
Bit rate : 768 Kbps
Channel(s) : 6 channels
Channel positions : Front: L C R, Side: L R, LFE
Sampling rate : 48.0 KHz
Bit depth : 24 bits
Compression mode : Lossy
Delay relative to video : 11ms
Stream size : 535 MiB (5%)
Title : DTS.768.Kbps (6ch) English
Language : English
Default : No
Forced : No

Text #1
ID : 5
Format : UTF-8
Codec ID : S_TEXT/UTF8
Codec ID/Info : UTF-8 Plain Text
Title : Русские (notabenoid)
Language : Russian
Default : No
Forced : No

Text #2
ID : 6
Format : UTF-8
Codec ID : S_TEXT/UTF8
Codec ID/Info : UTF-8 Plain Text
Title : English (Full)
Language : English
Default : No
Forced : No

Text #3
ID : 7
Format : UTF-8
Codec ID : S_TEXT/UTF8
Codec ID/Info : UTF-8 Plain Text
Title : English (SDH-Colored)
Language : English
Default : No
Forced : No

Menu
00:00:00.000 : en:00:00:00.000
00:08:15.500 : en:00:08:15.500
00:15:56.792 : en:00:15:56.792
00:24:38.667 : en:00:24:38.667
00:32:36.125 : en:00:32:36.125
00:40:55.917 : en:00:40:55.917
00:48:00.458 : en:00:48:00.458
00:56:09.000 : en:00:56:09.000
01:03:43.833 : en:01:03:43.833
01:14:07.708 : en:01:14:07.708
01:19:14.958 : en:01:19:14.958
01:28:19.167 : en:01:28:19.167


загрузка...
Правила, инструкции, FAQ!!!
Торрент  Добавлен [10 сен 2014, 08:27] Скачать торрент
Скачать торрент
[ Размер 25.6 КБ / Просмотров 15 ]

Статус
Проверен 
 
Размер  10 ГБ
Приватный: Нет (DHT включён)
.torrent скачан  199
Как залить торрент? | Как скачать Torrent? | Как смотреть и слушать онлайн?  


     Отправить личное сообщение
   
Страница 1 из 1
Показать сообщения за:  Поле сортировки  
Начать новую тему Ответить на тему

   Похожие торренты   Автор   Ответы   Просмотры   Последнее сообщение 
В этой теме нет новых непрочитанных сообщений. Скачать торрент Проверен Грязь / Filth (2013) BDRip [576p] iPad

в форуме Фильмы для iPod, iPhone, iPad, Размер: 1.67 ГБ, Здоровье: 100%

Anonymous

0
4|1

128
1

13 дек 2014, 00:14

Anonymous Перейти к последнему сообщению

В этой теме нет новых непрочитанных сообщений. Скачать торрент Грязь / Filth (2013) BDRip 720p | Лицензия

в форуме 720p | 1080p, Размер: 4.43 ГБ, Здоровье: 100%

Anonymous

0
29|1

24
259

23 янв 2014, 07:52

Anonymous Перейти к последнему сообщению

В этой теме нет новых непрочитанных сообщений. Скачать торрент Проверен [iPad] Грязь / Filth (Джон С. Бейрд / Jon S. Baird ) [2013, Великобритания, Криминал, драма, комедия, BDRip, SD (576p)] DUB + Original + sub (rus, eng)

в форуме Фильмы для iPod, iPhone, iPad, Размер: 1.67 ГБ, Здоровье: 100%

Гость

0
55|17

54
3

14 май 2015, 00:21

Гость Перейти к последнему сообщению

В этой теме нет новых непрочитанных сообщений. Скачать торрент Проверен Cradle Of Filth - Lilith Immaculate (Explicit) [2011, Symphonic Classical Сrossover (Dani Filth Female Vocal),1080p]

в форуме Концерты (HD-Video), Размер: 846.92 МБ, Здоровье: 100%

Anonymous

0
1|0

0
0

23 окт 2016, 14:11

Anonymous Перейти к последнему сообщению

В этой теме нет новых непрочитанных сообщений. Скачать торрент Проверен Feuertanz Festival 2013 [2013, Folk Rock/Metal, BDRip 1080p]

в форуме Концерты (HD-Video), Размер: 9.84 ГБ, Здоровье: 100%

Anonymous

0
2|1

0
0

23 окт 2016, 13:38

Anonymous Перейти к последнему сообщению



Сейчас этот форум просматривают: нет зарегистрированных пользователей и гости: 1


Вы не можете начинать темы
Вы не можете отвечать на сообщения
Вы не можете редактировать свои сообщения
Вы не можете удалять свои сообщения
Вы не можете добавлять вложения

Перейти:  

!ВНИМАНИЕ!
 Ресурс не предоставляет электронные версии произведений, а занимается лишь коллекционированием и каталогизацией ссылок, присылаемых и публикуемых на форуме нашими читателями. Если вы являетесь правообладателем какого-либо представленного материала и не желаете чтобы ссылка на него находилась в нашем каталоге, свяжитесь с нами и мы незамедлительно удалим её. Файлы для обмена на трекере предоставлены пользователями сайта, и администрация не несёт ответственности за их содержание. Просьба не заливать файлы, защищенные авторскими правами, а также файлы нелегального содержания!