На всех торрентах на трекере установлена скидка на скачивание в размере 100 процентов(а).
 Возможность скачивания торрента НЕ зависит от ограничений при низком ратио, низком аплоаде, требуемом ратио или требуемом аплоаде.


Начать новую тему Ответить на тему
Статистика раздачи
Размер: 4.37 ГБ | Добавлен: 08 мар 2013, 18:29 | Скачали: 0
Сидеров: 0  [0 байт/сек]    Личеров: 0  [0 байт/сек]
Пред. тема | След. тема 

Автор
Сообщение

СообщениеДобавлено: 08 мар 2013, 18:29 

Робот и Фрэнк / Robot & Frank

Название: Робот и Фрэнк
Оригинальное название: Robot & Frank
Год выхода: 2012
Жанр: Фантастика, драма, комедия, криминал
Режиссер: Джейк Шрейер

В фильме снимались: Фрэнк Ланджелла, Джеймс Марсден, Лив Тайлер, Сьюзен Сарандон, Питер Сарсгаард, Джереми Стронг, Дарио Бароссо, Бонни Бентли, Ана Гастейер, Рэйчел Ма, Дэна Морган, Джошуа Ормонд, Джереми Систо, Кэтерин Уотерстон

Вкратце: Трогательная дружба между роботом и стариком. Френк - одинок, дети взрослые и живут далеко. Робота-компаньона подарил Френку сын, чтобы помочь больному отцу, но он не очень доверяет роботу...



Страна: США
Студия: Dog Run Pictures, Park Pictures, TBB, White Hat
Продолжительность: 01:28:59

Формат: mkv
Качество: BDRip [1080p]
Видео: 1920x800, 6 577 Кбит/сек, 23,976 кадр/сек, AVC, x264, 2,40:1, 0.179 Бит/[Пиксели*Кадры], 2pass
Аудио: AC-3, 448 Кбит/сек, 6 канала(ов), 48,0 КГц






Format : Matroska
Format version : Version 4 / Version 2
File size : 4.37 GiB
Duration : 1h 29mn
Overall bit rate : 7 026 Kbps
Encoded date : UTC 2013-03-07 18:41:55
Writing application : mkvmerge v6.0.0 ('Coming Up For Air') built on Jan 20 2013 09:52:00
Writing library : libebml v1.3.0 + libmatroska v1.4.0

Video
ID : 1
Format : AVC
Format/Info : Advanced Video Codec
Format profile : High@L4.0
Format settings, CABAC : Yes
Format settings, ReFrames : 4 frames
Codec ID : V_MPEG4/ISO/AVC
Duration : 1h 29mn
Bit rate : 6 577 Kbps
Width : 1 920 pixels
Height : 800 pixels
Display aspect ratio : 2.40:1
Frame rate mode : Constant
Frame rate : 23.976 fps
Color space : YUV
Chroma subsampling : 4:2:0
Bit depth : 8 bits
Scan type : Progressive
Bits/(Pixel*Frame) : 0.179
Stream size : 4.00 GiB (92%)
Writing library : x264 core 129 r2245 bc13772
Encoding settings : cabac=1 / ref=3 / deblock=1:0:0 / analyse=0x3:0x113 / me=hex / subme=7 / psy=1 / psy_rd=1.00:0.00 / mixed_ref=1 / me_range=16 / chroma_me=1 / trellis=1 / 8x8dct=1 / cqm=0 / deadzone=21,11 / fast_pskip=1 / chroma_qp_offset=-2 / threads=6 / lookahead_threads=1 / sliced_threads=0 / nr=0 / decimate=1 / interlaced=0 / bluray_compat=0 / constrained_intra=0 / bframes=3 / b_pyramid=2 / b_adapt=1 / b_bias=0 / direct=1 / weightb=1 / open_gop=0 / weightp=2 / keyint=240 / keyint_min=23 / scenecut=40 / intra_refresh=0 / rc_lookahead=40 / rc=2pass / mbtree=1 / bitrate=6577 / ratetol=1.0 / qcomp=0.60 / qpmin=0 / qpmax=69 / qpstep=4 / cplxblur=20.0 / qblur=0.5 / ip_ratio=1.40 / aq=1:1.00
Language : English
Default : Yes
Forced : No

Audio
ID : 2
Format : AC-3
Format/Info : Audio Coding 3
Mode extension : CM (complete main)
Format settings, Endianness : Big
Codec ID : A_AC3
Duration : 1h 29mn
Bit rate mode : Constant
Bit rate : 448 Kbps
Channel(s) : 6 channels
Channel positions : Front: L C R, Side: L R, LFE
Sampling rate : 48.0 KHz
Bit depth : 16 bits
Compression mode : Lossy
Stream size : 285 MiB (6%)
Default : Yes
Forced : No
загрузка...
Правила, инструкции, FAQ!!!
Торрент  Добавлен [08 мар 2013, 18:29] Скачать торрент
Скачать торрент
[ Размер 11.59 КБ / Просмотров 13 ]

Статус  
 
Размер  4.37 ГБ
Приватный: Нет (DHT включён)
.torrent скачан  0
Как залить торрент? | Как скачать Torrent? | Как смотреть и слушать онлайн?  


     Отправить личное сообщение
   
Страница 1 из 1
Показать сообщения за:  Поле сортировки  
Начать новую тему Ответить на тему

   Похожие торренты   Автор   Ответы   Просмотры   Последнее сообщение 
В этой теме нет новых непрочитанных сообщений. Скачать торрент Клик: С пультом по жизни / Click (Фрэнк Корачи / Frank Coraci) [2006, Фантастика, комедия, BDRip] Dub + Original + Subs (Rus, Eng)

в форуме Фантастика, Фэнтези, Размер: 2.18 ГБ, Здоровье: 100%

Anonymous

0
22|7

59
1

11 фев 2014, 09:16

Anonymous Перейти к последнему сообщению

В этой теме нет новых непрочитанных сообщений. Скачать торрент Проверен [iPad] Клик: С пультом по жизни / Click (Фрэнк Корачи/ Frank Coraci) [2006, США, Фэнтези, комедия, драма, BDRip, 576p] Dub + Original + sub (rus, eng)

в форуме Фильмы для iPod, iPhone, iPad, Размер: 1.84 ГБ, Здоровье: 100%

Anonymous

0
24|8

25
1

13 май 2015, 23:56

Anonymous Перейти к последнему сообщению

В этой теме нет новых непрочитанных сообщений. Скачать торрент Гавань / Haven (Фрэнк Е. Флауэрс /Frank E. Flowers) [2004 г., драма, криминал, DVDRip]

в форуме Драмы, Мелодрамы, Размер: 814.27 МБ, Здоровье: 100%

Anonymous

0
5|1

31
0

22 апр 2014, 11:47

Anonymous Перейти к последнему сообщению

В этой теме нет новых непрочитанных сообщений. Скачать торрент Я, робот / I, Robot (Алекс Пройас / Alex Proyas) [2004, США, фантастика, боевик, триллер, детектив, BDRip] Dub

в форуме Фантастика, Фэнтези, Размер: 2.18 ГБ, Здоровье: 100%

Anonymous

0
56|19

42
0

24 апр 2014, 14:10

Anonymous Перейти к последнему сообщению

В этой теме нет новых непрочитанных сообщений. Скачать торрент Робот-полицейский / Robocop (Пол Верховен) [1987 г., фантастика, боевик, триллер, драма, криминал, BD-Remux]

в форуме BD-Remux, Размер: 18.53 ГБ, Здоровье: 100%

Anonymous

0
1|1

198
0

25 фев 2014, 22:42

Anonymous Перейти к последнему сообщению



Сейчас этот форум просматривают: нет зарегистрированных пользователей и гости: 3


Вы не можете начинать темы
Вы не можете отвечать на сообщения
Вы не можете редактировать свои сообщения
Вы не можете удалять свои сообщения
Вы не можете добавлять вложения

Перейти:  

!ВНИМАНИЕ!
 Ресурс не предоставляет электронные версии произведений, а занимается лишь коллекционированием и каталогизацией ссылок, присылаемых и публикуемых на форуме нашими читателями. Если вы являетесь правообладателем какого-либо представленного материала и не желаете чтобы ссылка на него находилась в нашем каталоге, свяжитесь с нами и мы незамедлительно удалим её. Файлы для обмена на трекере предоставлены пользователями сайта, и администрация не несёт ответственности за их содержание. Просьба не заливать файлы, защищенные авторскими правами, а также файлы нелегального содержания!