На всех торрентах на трекере установлена скидка на скачивание в размере 100 процентов(а).
 Возможность скачивания торрента НЕ зависит от ограничений при низком ратио, низком аплоаде, требуемом ратио или требуемом аплоаде.


Начать новую тему Ответить на тему
Статистика раздачи
Размер: 10.01 ГБ | Добавлен: 07 сен 2014, 21:18 | Скачали: 47
Сидеров: 7  [0 байт/сек]    Личеров: 0  [0 байт/сек]
Пред. тема | След. тема 

Автор
Сообщение

СообщениеДобавлено: 07 сен 2014, 21:18 

Название: Коммандо
Оригинальное название: Commando
Год выхода: 1985
Жанр: боевик, триллер, комедия, приключения
Режиссер: Марк Л. Лестер

В ролях: Арнольд Шварценеггер, Рей Дон Чон, Дэн Хедайя, Вернон Уэллс, Джеймс Олсон, Дэвид Патрик Келли, Алисса Милано, Билл Дьюк, Дрю Снайдер, Шарон Виатт, Майкл Делано, Боб Майнор, Майкл Адамс, Гэри Сервантес, Ленни Джулиано, Чарльз Мешак, Челси Филд, Джули Хайек, Хэнк Калиа, Уолтер Скотт

О фильме: Полковник в отставке Джон Матрикс — бывший командир спецотряда, участвовавшего в секретных операциях на Ближнем Востоке, СССР и Центральной Америке. Находясь в отличной физической форме и владея знаниями, которые делают его супер-солдатом, полковник в отставке Джон Матрикс живет под другим именем в большом доме со своей дочерью вдали от города.

Но спокойную жизнь нарушает его старый враг, похищая 11-ти летнюю дочь полковника. И вспыхнувший ненавистью Джон Матрикс безжалостно убивает всех, кто становится у него на пути к спасению любимой дочери…



Релиз от -
Автор рипа: Deep Fusion

Выпущено: США
Продолжительность: 01:30:15
Перевод: 3xMVO + DVO + 5xAVO + UKR + Оригинал
Субтитры: русские (полные), русские (полные, Гоблин), английские (полные)


Формат: MKV
Качество: BDRip 720p (Источник: HDCLUB / BDRemux / 1080p)
Видео: 1280x694 (1.84:1), 23.976 fps, x264@L4.1 ~9631 kbps avg, 0.452 bit/pixel
Аудио #1: 48 kHz, AC3, 2/0 (L,R) ch, ~192.00 kbps avg |Многоголосый, закадровый (R5)|
Аудио #2: 48 kHz, AC3 Dolby Digital, 3/2 (L,C,R,l,r) + LFE ch, 640.00 kbps avg |Многоголосый, закадровый (Киномания)|
Аудио #3: 48 kHz, AC3 Dolby Digital, 3/2 (L,C,R,l,r) + LFE ch, 640.00 kbps avg |Многоголосый, закадровый (ОРТ)|
Аудио #4: 48 kHz, AC3 Dolby Digital, 3/2 (L,C,R,l,r) + LFE ch, 640.00 kbps avg |Двухголосый, закадровый (П.Гланц и И.Королева)|
Аудио #5: 48 kHz, AC3 Dolby Digital, 3/2 (L,C,R,l,r) + LFE ch, 640.00 kbps avg |Одноголосый, закадровый (А.Гаврилов)|
Аудио #6: 48 kHz, AC3 Dolby Digital, 3/2 (L,C,R,l,r) + LFE ch, 640.00 kbps avg |Одноголосый, закадровый (Дмитрий «Гоблин» Пучков)|
Аудио #7: 48 kHz, AC3, 2/0 (L,R) ch, ~192.00 kbps avg |Одноголосый, закадровый (В.Горчаков)|
Аудио #8: 48 kHz, AC3, 2/0 (L,R) ch, ~192.00 kbps avg |Одноголосый, закадровый (Ю.Толбин)|
Аудио #9: 48 kHz, AC3, 3/2 (L,C,R,l,r) + LFE ch, ~448.00 kbps avg |Одноголосый, закадровый (Б.Федоров)|
Аудио #10: 48 kHz, AC3, 2/0 (L,R) ch, ~192.00 kbps avg |Многоголосый, закадровый (1+1)|
Аудио #11: 48 kHz, Digital Theater System, 3/2 (L,C,R,l,r) + LFE ch, ~1510 kbps avg |Оригинальная звуковая дорожка|

Скачать: Сэмпл


Формат : Matroska
Версия формата : Version 2
Размер файла : 10,0 Гбайт
Продолжительность : 1 ч. 30 м.
Общий поток : 15,9 Мбит/сек
Дата кодирования : UTC 2012-06-20 07:33:19
Программа кодирования : mkvmerge v5.5.0 ('Healer') built on Apr 6 2012 21:43:24
Библиотека кодирования : libebml v1.2.3 + libmatroska v1.3.0

Видео
Идентификатор : 1
Формат : AVC
Формат/Информация : Advanced Video Codec
Профиль формата : High@L4.1
Параметр CABAC формата : Да
Параметр ReFrames формата : 9 кадров
Идентификатор кодека : V_MPEG4/ISO/AVC
Продолжительность : 1 ч. 30 м.
Битрейт : 9631 Кбит/сек
Ширина : 1280 пикселей
Высота : 694 пикселя
Соотношение сторон : 1,85:1
Частота кадров : 23,976 кадра/сек
Цветовое пространство : YUV
Субдискретизация насыщенности : 4:2:0
Битовая глубина : 8 бит
Тип развёртки : Прогрессивная
Бит/(Пиксели*Кадры) : 0.452
Размер потока : 6,07 Гбайт (61%)
Заголовок : Коммандос / Коммандо / Commando (1985) BDRip 720p | HQCLUB by Deep Fusion
Библиотека кодирования : x264 core 125 r2200 999b753
Настройки программы : cabac=1 / ref=9 / deblock=1:-3:-3 / analyse=0x3:0x113 / me=umh / subme=10 / psy=1 / psy_rd=1.05:0.10 / mixed_ref=1 / me_range=48 / chroma_me=1 / trellis=2 / 8x8dct=1 / cqm=0 / deadzone=21,11 / fast_pskip=0 / chroma_qp_offset=-5 / threads=6 / lookahead_threads=1 / sliced_threads=0 / nr=0 / decimate=1 / interlaced=0 / bluray_compat=0 / constrained_intra=0 / bframes=12 / b_pyramid=2 / b_adapt=2 / b_bias=0 / direct=1 / weightb=1 / open_gop=0 / weightp=2 / keyint=240 / keyint_min=23 / scenecut=40 / intra_refresh=0 / rc_lookahead=60 / rc=crf / mbtree=0 / crf=18.0 / qcomp=0.60 / qpmin=10 / qpmax=69 / qpstep=4 / vbv_maxrate=62500 / vbv_bufsize=50000 / crf_max=0.0 / nal_hrd=none / ip_ratio=1.40 / pb_ratio=1.30 / aq=1:0.80
Язык : English
Default : Да
Forced : Нет

Аудио #1
Идентификатор : 2
Формат : AC-3
Формат/Информация : Audio Coding 3
Расширение режима : CM (complete main)
Параметр Endianness формата : Big
Идентификатор кодека : A_AC3
Продолжительность : 1 ч. 30 м.
Вид битрейта : Постоянный
Битрейт : 192 Кбит/сек
Каналы : 2 канала
Расположение каналов : Front: L R
Частота : 48,0 КГц
Битовая глубина : 16 бит
Метод сжатия : С потерями
Размер потока : 124 Мбайт (1%)
Заголовок : Многоголосый, закадровый (R5)
Язык : Russian
Default : Да
Forced : Нет

Аудио #2
Идентификатор : 3
Формат : AC-3
Формат/Информация : Audio Coding 3
Расширение режима : CM (complete main)
Параметр Endianness формата : Big
Идентификатор кодека : A_AC3
Продолжительность : 1 ч. 30 м.
Вид битрейта : Постоянный
Битрейт : 640 Кбит/сек
Каналы : 6 каналов
Расположение каналов : Front: L C R, Side: L R, LFE
Частота : 48,0 КГц
Битовая глубина : 16 бит
Метод сжатия : С потерями
Размер потока : 413 Мбайт (4%)
Заголовок : Многоголосый, закадровый (Киномания)
Язык : Russian
Default : Нет
Forced : Нет

Аудио #3
Идентификатор : 4
Формат : AC-3
Формат/Информация : Audio Coding 3
Расширение режима : CM (complete main)
Параметр Endianness формата : Big
Идентификатор кодека : A_AC3
Продолжительность : 1 ч. 30 м.
Вид битрейта : Постоянный
Битрейт : 640 Кбит/сек
Каналы : 6 каналов
Расположение каналов : Front: L C R, Side: L R, LFE
Частота : 48,0 КГц
Битовая глубина : 16 бит
Метод сжатия : С потерями
Размер потока : 413 Мбайт (4%)
Заголовок : Многоголосый, закадровый (ОРТ)
Язык : Russian
Default : Нет
Forced : Нет

Аудио #4
Идентификатор : 5
Формат : AC-3
Формат/Информация : Audio Coding 3
Расширение режима : CM (complete main)
Параметр Endianness формата : Big
Идентификатор кодека : A_AC3
Продолжительность : 1 ч. 30 м.
Вид битрейта : Постоянный
Битрейт : 640 Кбит/сек
Каналы : 6 каналов
Расположение каналов : Front: L C R, Side: L R, LFE
Частота : 48,0 КГц
Битовая глубина : 16 бит
Метод сжатия : С потерями
Размер потока : 413 Мбайт (4%)
Заголовок : Двухголосый, закадровый (П.Гланц и И.Королева)
Язык : Russian
Default : Нет
Forced : Нет

Аудио #5
Идентификатор : 6
Формат : AC-3
Формат/Информация : Audio Coding 3
Расширение режима : CM (complete main)
Параметр Endianness формата : Big
Идентификатор кодека : A_AC3
Продолжительность : 1 ч. 30 м.
Вид битрейта : Постоянный
Битрейт : 640 Кбит/сек
Каналы : 6 каналов
Расположение каналов : Front: L C R, Side: L R, LFE
Частота : 48,0 КГц
Битовая глубина : 16 бит
Метод сжатия : С потерями
Размер потока : 413 Мбайт (4%)
Заголовок : Одноголосый, закадровый (А.Гаврилов)
Язык : Russian
Default : Нет
Forced : Нет

Аудио #6
Идентификатор : 7
Формат : AC-3
Формат/Информация : Audio Coding 3
Расширение режима : CM (complete main)
Параметр Endianness формата : Big
Идентификатор кодека : A_AC3
Продолжительность : 1 ч. 30 м.
Вид битрейта : Постоянный
Битрейт : 640 Кбит/сек
Каналы : 6 каналов
Расположение каналов : Front: L C R, Side: L R, LFE
Частота : 48,0 КГц
Битовая глубина : 16 бит
Метод сжатия : С потерями
Размер потока : 413 Мбайт (4%)
Заголовок : Одноголосый, закадровый (Дмитрий «Гоблин» Пучков)
Язык : Russian
Default : Нет
Forced : Нет

Аудио #7
Идентификатор : 8
Формат : AC-3
Формат/Информация : Audio Coding 3
Расширение режима : CM (complete main)
Параметр Endianness формата : Big
Идентификатор кодека : A_AC3
Продолжительность : 1 ч. 30 м.
Вид битрейта : Постоянный
Битрейт : 192 Кбит/сек
Каналы : 2 канала
Расположение каналов : Front: L R
Частота : 48,0 КГц
Битовая глубина : 16 бит
Метод сжатия : С потерями
Размер потока : 124 Мбайт (1%)
Заголовок : Одноголосый, закадровый (В.Горчаков)
Язык : Russian
Default : Нет
Forced : Нет

Аудио #8
Идентификатор : 9
Формат : AC-3
Формат/Информация : Audio Coding 3
Расширение режима : CM (complete main)
Параметр Endianness формата : Big
Идентификатор кодека : A_AC3
Продолжительность : 1 ч. 30 м.
Вид битрейта : Постоянный
Битрейт : 192 Кбит/сек
Каналы : 2 канала
Расположение каналов : Front: L R
Частота : 48,0 КГц
Битовая глубина : 16 бит
Метод сжатия : С потерями
Размер потока : 124 Мбайт (1%)
Заголовок : Одноголосый, закадровый (Ю.Толбин)
Язык : Russian
Default : Нет
Forced : Нет

Аудио #9
Идентификатор : 10
Формат : AC-3
Формат/Информация : Audio Coding 3
Расширение режима : CM (complete main)
Параметр Endianness формата : Big
Идентификатор кодека : A_AC3
Продолжительность : 1 ч. 30 м.
Вид битрейта : Постоянный
Битрейт : 448 Кбит/сек
Каналы : 6 каналов
Расположение каналов : Front: L C R, Side: L R, LFE
Частота : 48,0 КГц
Битовая глубина : 16 бит
Метод сжатия : С потерями
Размер потока : 289 Мбайт (3%)
Заголовок : Одноголосый, закадровый (Б.Федоров)
Язык : Russian
Default : Нет
Forced : Нет

Аудио #10
Идентификатор : 11
Формат : AC-3
Формат/Информация : Audio Coding 3
Расширение режима : CM (complete main)
Параметр Endianness формата : Big
Идентификатор кодека : A_AC3
Продолжительность : 1 ч. 30 м.
Вид битрейта : Постоянный
Битрейт : 192 Кбит/сек
Каналы : 2 канала
Расположение каналов : Front: L R
Частота : 48,0 КГц
Битовая глубина : 16 бит
Метод сжатия : С потерями
Размер потока : 124 Мбайт (1%)
Заголовок : Многоголосый, закадровый (1+1)
Язык : Ukrainian
Default : Нет
Forced : Нет

Аудио #11
Идентификатор : 12
Формат : DTS
Формат/Информация : Digital Theater Systems
Идентификатор кодека : A_DTS
Продолжительность : 1 ч. 30 м.
Вид битрейта : Постоянный
Битрейт : 1510 Кбит/сек
Каналы : 6 каналов
Расположение каналов : Front: L C R, Side: L R, LFE
Частота : 48,0 КГц
Битовая глубина : 24 бит
Метод сжатия : С потерями
Размер потока : 975 Мбайт (10%)
Заголовок : Оригинальная звуковая дорожка
Язык : English
Default : Нет
Forced : Нет

Текст #1
Идентификатор : 13
Формат : UTF-8
Идентификатор кодека : S_TEXT/UTF8
Идентификатор кодека/Информация : UTF-8 Plain Text
Заголовок : Русские (полные)
Язык : Russian
Default : Нет
Forced : Нет

Текст #2
Идентификатор : 14
Формат : UTF-8
Идентификатор кодека : S_TEXT/UTF8
Идентификатор кодека/Информация : UTF-8 Plain Text
Заголовок : Русские (полные, Гоблин)
Язык : Russian
Default : Нет
Forced : Нет

Текст #3
Идентификатор : 15
Формат : UTF-8
Идентификатор кодека : S_TEXT/UTF8
Идентификатор кодека/Информация : UTF-8 Plain Text
Заголовок : Английские (полные)
Язык : English
Default : Нет
Forced : Нет

Меню
00:00:00.000 : :Chapter 01
00:04:14.836 : :Chapter 02
00:08:16.076 : :Chapter 03
00:11:26.349 : :Chapter 04
00:16:35.701 : :Chapter 05
00:19:16.778 : :Chapter 06
00:22:46.948 : :Chapter 07
00:26:42.266 : :Chapter 08
00:29:03.239 : :Chapter 09
00:32:14.766 : :Chapter 10
00:37:39.797 : :Chapter 11
00:43:59.219 : :Chapter 12
00:49:14.992 : :Chapter 13
00:53:45.889 : :Chapter 14
00:56:32.347 : :Chapter 15
00:59:14.509 : :Chapter 16
01:04:45.380 : :Chapter 17
01:06:58.555 : :Chapter 18
01:10:21.966 : :Chapter 19
01:12:52.618 : :Chapter 20
01:17:48.246 : :Chapter 21
01:19:48.198 : :Chapter 22
01:24:37.363 : :Chapter 23
01:26:55.292 : :Chapter 24
01:30:15.576 : :Chapter 25
---[NoImage] x264 [info]: frame I:1027 Avg QP:18.28 size:120489
---[NoImage] x264 [info]: frame P:24250 Avg QP:19.15 size: 80874
---[NoImage] x264 [info]: frame B:104569 Avg QP:21.38 size: 44433
---[NoImage] x264 [info]: consecutive B-frames: 1.4% 1.4% 3.9% 14.8% 13.8% 40.7% 8.3% 3.2% 3.5% 3.9% 2.0% 2.6% 0.5%
---[NoImage] x264 [info]: mb I I16..4: 1.3% 92.4% 6.3%
---[NoImage] x264 [info]: mb P I16..4: 0.2% 48.6% 1.4% P16..4: 20.9% 19.2% 9.4% 0.0% 0.0% skip: 0.2%
---[NoImage] x264 [info]: mb B I16..4: 0.0% 8.3% 0.2% B16..8: 41.1% 21.3% 6.7% direct:13.3% skip: 9.1% L0:45.2% L1:40.2% BI:14.5%
---[NoImage] x264 [info]: 8x8 transform intra:96.9% inter:63.8%
---[NoImage] x264 [info]: coded y,uvDC,uvAC intra: 98.7% 86.0% 60.1% inter: 67.8% 49.8% 3.3%
---[NoImage] x264 [info]: i16 v,h,dc,p: 29% 16% 19% 35%
---[NoImage] x264 [info]: i8 v,h,dc,ddl,ddr,vr,hd,vl,hu: 10% 8% 12% 10% 13% 12% 12% 11% 13%
---[NoImage] x264 [info]: i4 v,h,dc,ddl,ddr,vr,hd,vl,hu: 14% 7% 2% 9% 15% 14% 14% 12% 13%
---[NoImage] x264 [info]: i8c dc,h,v,p: 44% 27% 18% 11%
---[NoImage] x264 [info]: Weighted P-Frames: Y:5.9% UV:2.0%
---[NoImage] x264 [info]: ref P L0: 39.9% 11.5% 19.4% 8.4% 6.7% 4.8% 4.1% 2.5% 2.4% 0.2% 0.0%
---[NoImage] x264 [info]: ref B L0: 67.7% 14.3% 7.5% 3.9% 2.9% 2.3% 1.1% 0.3%
---[NoImage] x264 [info]: ref B L1: 90.2% 9.8%
---[NoImage] x264 [info]: kb/s:9943.42
загрузка...
Правила, инструкции, FAQ!!!
Торрент  Добавлен [07 сен 2014, 21:18] Скачать торрент
Скачать торрент
[ Размер 50.75 КБ / Просмотров 11 ]

Статус
Проверен 
 
Размер  10.01 ГБ
Приватный: Нет (DHT включён)
.torrent скачан  47
Как залить торрент? | Как скачать Torrent? | Как смотреть и слушать онлайн?  


     Отправить личное сообщение
   
Страница 1 из 1
Показать сообщения за:  Поле сортировки  
Начать новую тему Ответить на тему

   Похожие торренты   Автор   Ответы   Просмотры   Последнее сообщение 
В этой теме нет новых непрочитанных сообщений. Скачать торрент Проверен Коммандо / Commando (1985) BDRip 1080p | P, P2, A

в форуме 720p | 1080p, Размер: 15.72 ГБ, Здоровье: 100%

Anonymous

0
5|5

36
109

07 сен 2014, 21:10

Anonymous Перейти к последнему сообщению

В этой теме нет новых непрочитанных сообщений. Скачать торрент Проверен Коммандо / Commando (1985) HDRip | Р

в форуме Боевики, Размер: 1.45 ГБ, Здоровье: 100%

Anonymous

0
60|11

47
557

07 сен 2014, 21:14

Anonymous Перейти к последнему сообщению

В этой теме нет новых непрочитанных сообщений. Скачать торрент Проверен Полиция / Police (1985) BDRip 720p

в форуме 720p | 1080p, Размер: 4.39 ГБ, Здоровье: 100%

Anonymous

0
12|1

35
116

04 окт 2014, 00:12

Anonymous Перейти к последнему сообщению

В этой теме нет новых непрочитанных сообщений. Скачать торрент Проверен Изумрудный лес / The Emerald Forest (1985) BDRip 720p | P

в форуме 720p | 1080p, Размер: 10.48 ГБ, Здоровье: 100%

Гость

0
19|9

28
129

28 дек 2014, 23:39

Гость Перейти к последнему сообщению

В этой теме нет новых непрочитанных сообщений. Скачать торрент Проверен Назад в будущее: Трилогия / Back to the Future: Trilogy (1985-1990) BDRip 720p

в форуме Трилогии, Размер: 11.51 ГБ, Здоровье: 100%

Гость

0
134|122

141
2

01 дек 2014, 17:37

Гость Перейти к последнему сообщению



Сейчас этот форум просматривают: нет зарегистрированных пользователей и гости: 2


Вы не можете начинать темы
Вы не можете отвечать на сообщения
Вы не можете редактировать свои сообщения
Вы не можете удалять свои сообщения
Вы не можете добавлять вложения

Перейти:  

!ВНИМАНИЕ!
 Ресурс не предоставляет электронные версии произведений, а занимается лишь коллекционированием и каталогизацией ссылок, присылаемых и публикуемых на форуме нашими читателями. Если вы являетесь правообладателем какого-либо представленного материала и не желаете чтобы ссылка на него находилась в нашем каталоге, свяжитесь с нами и мы незамедлительно удалим её. Файлы для обмена на трекере предоставлены пользователями сайта, и администрация не несёт ответственности за их содержание. Просьба не заливать файлы, защищенные авторскими правами, а также файлы нелегального содержания!