На всех торрентах на трекере установлена скидка на скачивание в размере 100 процентов(а).
 Возможность скачивания торрента НЕ зависит от ограничений при низком ратио, низком аплоаде, требуемом ратио или требуемом аплоаде.


Начать новую тему Ответить на тему
Статистика раздачи
Размер: 7.07 ГБ | Добавлен: 07 сен 2014, 20:49 | Скачали: 84
Сидеров: 4  [0 байт/сек]    Личеров: 1  [0 байт/сек]
Пред. тема | След. тема 

Автор
Сообщение

СообщениеДобавлено: 07 сен 2014, 20:49 

Страна: США
Год выпуска: 1975
Жанр: драма
Продолжительность: 02:13:42
Перевод: Профессиональный (полное дублирование) Лицензия | Blu-ray CEE
Перевод: Профессиональный (многоголосый, закадровый) Варус-видео
Перевод: Профессиональный (многоголосый, закадровый) Киномания
Перевод: Авторский (одноголосый закадровый) Алексей Михалёв
Перевод: Авторский (одноголосый закадровый) Юрий Живов
Оригинальная звуковая дорожка : английский

Режиссер: Милош Форман / Milos Forman
Сценарий:Лоренс Хаубен, Бо Голдмэн, Кен Кизи
Продюсер:Майкл Дуглас, Сол Заенц, Мартин Финк

Актеры: Джек Николсон, Луиза Флетчер, Брэд Дуриф, Уильям Редфилд, Кристофер Ллойд, Дэнни ДеВито, Уилл Сэмпсон, Нэйтан Джордж, Дин Р. Брукс, Майкл Берриман

Роли дублировали: Владимир Еремин, Людмила Ильина, Марина Тарасова, Сергей Балабанов, Юрий Саранцев

Описание фильма: Сымитировав помешательство в надежде избежать тюремного заключения, Рэндл Патрик МакМерфи попадает в психиатрическую клинику, где почти безраздельным хозяином является жестокосердная сестра Милдред Рэтчед. МакМерфи поражается тому, что прочие пациенты смирились с существующим положением вещей, а некоторые — даже сознательно пришли в лечебницу, прячась от пугающего внешнего мира. И решается на бунт. В одиночку.







Качество видео: BDRip 720p
Исходник: Blu-ray
Формат: MKV
Видео кодек: MPEG-4 AVC
Аудио кодек: AC3
Видео: AVC, 1280x720 (16:9) at 23.976 fps, AVC at 5340 kbps avg, 0.242 bit/pixel
Аудио: Russian; AC3; 192 Kbps; CBR; 1 ch; 16 bit; DUB - Blu-ray CEE
Аудио: Russian; AC3; 224 Kbps; CBR; 2 ch; 16 bit; MVO - Варус-видео
Аудио: Russian; AC3; 384 Kbps; CBR; 6 ch; 16 bit; MVO - Киномания
Аудио: Russian; AC3; 192 Kbps; CBR; 2 ch; 16 bit; AVO - Михалёв
Аудио: Russian; AC3; 448 Kbps; CBR; 6 ch; 16 bit; AVO - Живов
Аудио: English; AC3; 640 Kbps; CBR; 6 ch; 16 bit; Original
Субтитры: Русские, английские
Навигация по главам: Есть

Автор рипа:

Релиз от:


One Flew Over the Cuckoos Nest.1975.720p.BluRay.x264-LEONARDO_[scarabey.org].mkv
Format : Matroska
Format version : Version 2
File size : 7.07 GiB
Duration : 2h 13mn
Overall bit rate : 7 570 Kbps
Movie name : Release by Leonardo for Scarabey.org
Encoded date : UTC 2014-09-05 15:01:54
Writing application : mkvmerge v5.0.1 ('Es ist Sommer') built on Oct 23 2011 00:46:40
Writing library : libebml v1.2.2 + libmatroska v1.3.0
Attachment : Yes

Video
ID : 1
Format : AVC
Format/Info : Advanced Video Codec
Format profile : High@L4.1
Format settings, CABAC : Yes
Format settings, ReFrames : 8 frames
Codec ID : V_MPEG4/ISO/AVC
Duration : 2h 13mn
Bit rate : 5 340 Kbps
Width : 1 280 pixels
Height : 720 pixels
Display aspect ratio : 16:9
Frame rate : 23.976 fps
Color space : YUV
Chroma subsampling : 4:2:0
Bit depth : 8 bits
Scan type : Progressive
Bits/(Pixel*Frame) : 0.242
Stream size : 4.99 GiB (71%)
Writing library : x264 core 125 r2208 d9d2288
Encoding settings : cabac=1 / ref=8 / deblock=1:-3:-3 / analyse=0x3:0x133 / me=umh / subme=11 / psy=1 / psy_rd=1.00:0.00 / mixed_ref=1 / me_range=32 / chroma_me=1 / trellis=2 / 8x8dct=1 / cqm=0 / deadzone=21,11 / fast_pskip=0 / chroma_qp_offset=-2 / threads=12 / lookahead_threads=2 / sliced_threads=0 / nr=0 / decimate=1 / interlaced=0 / bluray_compat=0 / constrained_intra=0 / bframes=8 / b_pyramid=2 / b_adapt=2 / b_bias=0 / direct=1 / weightb=1 / open_gop=0 / weightp=2 / keyint=250 / keyint_min=23 / scenecut=40 / intra_refresh=0 / rc=crf / mbtree=0 / crf=18.0 / qcomp=0.60 / qpmin=0 / qpmax=69 / qpstep=4 / ip_ratio=1.10 / pb_ratio=1.10 / aq=1:1.00
Language : English
Default : Yes
Forced : No

Audio #1
ID : 2
Format : AC-3
Format/Info : Audio Coding 3
Mode extension : CM (complete main)
Codec ID : A_AC3
Duration : 2h 13mn
Bit rate mode : Constant
Bit rate : 192 Kbps
Channel(s) : 1 channel
Channel positions : Front: C
Sampling rate : 48.0 KHz
Bit depth : 16 bits
Compression mode : Lossy
Stream size : 184 MiB (3%)
Language : Russian
Default : Yes
Forced : Yes

Audio #2
ID : 3
Format : AC-3
Format/Info : Audio Coding 3
Mode extension : CM (complete main)
Codec ID : A_AC3
Duration : 2h 13mn
Bit rate mode : Constant
Bit rate : 224 Kbps
Channel(s) : 2 channels
Channel positions : Front: L R
Sampling rate : 48.0 KHz
Bit depth : 16 bits
Compression mode : Lossy
Stream size : 214 MiB (3%)
Language : Russian
Default : No
Forced : No

Audio #3
ID : 4
Format : AC-3
Format/Info : Audio Coding 3
Mode extension : CM (complete main)
Codec ID : A_AC3
Duration : 2h 13mn
Bit rate mode : Constant
Bit rate : 384 Kbps
Channel(s) : 6 channels
Channel positions : Front: L C R, Side: L R, LFE
Sampling rate : 48.0 KHz
Bit depth : 16 bits
Compression mode : Lossy
Stream size : 367 MiB (5%)
Language : Russian
Default : No
Forced : No

Audio #4
ID : 5
Format : AC-3
Format/Info : Audio Coding 3
Mode extension : CM (complete main)
Codec ID : A_AC3
Duration : 2h 13mn
Bit rate mode : Constant
Bit rate : 192 Kbps
Channel(s) : 2 channels
Channel positions : Front: L R
Sampling rate : 48.0 KHz
Bit depth : 16 bits
Compression mode : Lossy
Stream size : 184 MiB (3%)
Language : Russian
Default : No
Forced : No

Audio #5
ID : 6
Format : AC-3
Format/Info : Audio Coding 3
Mode extension : CM (complete main)
Codec ID : A_AC3
Duration : 2h 13mn
Bit rate mode : Constant
Bit rate : 448 Kbps
Channel(s) : 6 channels
Channel positions : Front: L C R, Side: L R, LFE
Sampling rate : 48.0 KHz
Bit depth : 16 bits
Compression mode : Lossy
Stream size : 428 MiB (6%)
Language : Russian
Default : No
Forced : No

Audio #6
ID : 7
Format : AC-3
Format/Info : Audio Coding 3
Mode extension : CM (complete main)
Codec ID : A_AC3
Duration : 2h 13mn
Bit rate mode : Constant
Bit rate : 640 Kbps
Channel(s) : 6 channels
Channel positions : Front: L C R, Side: L R, LFE
Sampling rate : 48.0 KHz
Bit depth : 16 bits
Compression mode : Lossy
Stream size : 612 MiB (8%)
Title : Original
Language : English
Default : No
Forced : No

Text #1
ID : 8
Format : UTF-8
Codec ID : S_TEXT/UTF8
Codec ID/Info : UTF-8 Plain Text
Language : Russian
Default : No
Forced : No

Text #2
ID : 9
Format : UTF-8
Codec ID : S_TEXT/UTF8
Codec ID/Info : UTF-8 Plain Text
Language : Russian
Default : No
Forced : No

Text #3
ID : 10
Format : UTF-8
Codec ID : S_TEXT/UTF8
Codec ID/Info : UTF-8 Plain Text
Title : sunny-sko
Language : Russian
Default : No
Forced : No

Text #4
ID : 11
Format : UTF-8
Codec ID : S_TEXT/UTF8
Codec ID/Info : UTF-8 Plain Text
Language : English
Default : No
Forced : No

Text #5
ID : 12
Format : UTF-8
Codec ID : S_TEXT/UTF8
Codec ID/Info : UTF-8 Plain Text
Language : French
Default : No
Forced : No

Menu
00:00:00.000 : en:Sunrice Credits; Medicationtime
00:04:08.748 : en:Mr. Mcmurphy's Here
00:08:29.175 : en:Crazy: No More, No Less
00:13:53.999 : en:Meeting Called to Disorder
00:21:07.265 : en:Basketball Lesson
00:25:02.334 : en:Blackjack of Sort
00:27:24.142 : en:Out of Bounds
00:31:23.381 : en:Majority Rules
00:34:12.050 : en:At Least He Tried
00:39:15.353 : en:Getting Out the Vote
00:47:19.336 : en:A New Ballgame
00:48:49.426 : en:"She Likes a Rigged Vote"
00:51:25.916 : en:For a Ride
00:54:58.795 : en:Not Loonies But Fishermen
01:02:05.722 : en:A Big Catch
01:05:27.757 : en:"I Think I Can Help Him"
01:06:56.512 : en:Temwork
01:09:28.998 : en:Until We Let You Go
01:10:46.575 : en:Challeging Observations
01:19:20.422 : en:Trio for Tretment
01:26:50.371 : en:Hot to Trot
01:29:34.369 : en:Mischief After Dark
01:36:53.474 : en:Party in the Executive Lounge
01:37:50.531 : en:The Night Supervisor
01:41:24.411 : en:Party Everywhere Else
01:44:27.803 : en:Billy the Club
01:50:39.633 : en:The Morning After
01:53:16.039 : en:Questioning Billy
01:59:02.301 : en:Spilled Blood
02:02:11.324 : en:Where Mcmurphy Is
02:04:12.945 : en:"Let's Go"
02:09:04.570 : en:Free
02:11:25.878 : en:End Credits
загрузка...
Правила, инструкции, FAQ!!!
Торрент  Добавлен [07 сен 2014, 20:49] Скачать торрент
Скачать торрент
[ Размер 71.42 КБ / Просмотров 9 ]

Статус
Проверен 
 
Размер  7.07 ГБ
Приватный: Нет (DHT включён)
.torrent скачан  84
Как залить торрент? | Как скачать Torrent? | Как смотреть и слушать онлайн?  


     Отправить личное сообщение
   
Страница 1 из 1
Показать сообщения за:  Поле сортировки  
Начать новую тему Ответить на тему

   Похожие торренты   Автор   Ответы   Просмотры   Последнее сообщение 
В этой теме нет новых непрочитанных сообщений. Скачать торрент Проверен [iPad] Пролетая над гнездом кукушки / One Flew Over the Cuckoo's Nest (Милош Форман / Milos Forman ) [1975, США, Драма, BDRip, SD (576p)] DUB + Original + sub (rus, eng)

в форуме Фильмы для iPod, iPhone, iPad, Размер: 2.31 ГБ, Здоровье: 100%

Гость

0
56|19

19
0

12 май 2015, 00:14

Гость Перейти к последнему сообщению

В этой теме нет новых непрочитанных сообщений. Скачать торрент Проверен alter ego - Ken Kezey / Кен Кизи - One Flew Over the Cuckoo's Nest / Пролетая над гнездом кукушки [2004, DjVu/FB2, RUS]

в форуме Зарубежная литература (XX и XXI век), Размер: 11.69 МБ, Здоровье: 100%

Anonymous

0
17|5

0
0

08 сен 2016, 20:11

Anonymous Перейти к последнему сообщению

В этой теме нет новых непрочитанных сообщений. Скачать торрент Проверен Кизи Кен - Пролетая над гнездом кукушки [Вадим Максимов, 2006, Зарубежная классика, 112 kbps]

в форуме Аудиокниги (AAC, ALAC), Размер: 624.14 МБ, Здоровье: 100%

Anonymous

0
29|0

1
1

28 авг 2016, 17:43

Anonymous Перейти к последнему сообщению

В этой теме нет новых непрочитанных сообщений. Скачать торрент Проверен Cuckoo | Книга рецептов для мультиварки Cuckoo (2014) [PDF]

в форуме Кулинария, Размер: 6.85 МБ, Здоровье: 100%

Anonymous

0
24|1

15
2

26 ноя 2015, 19:42

Anonymous Перейти к последнему сообщению

В этой теме нет новых непрочитанных сообщений. Скачать торрент Pink Floyd - Wish You Were Here (Ceci nest pas) (1975 / 2012) [FLAC|Lossless|WEB-DL]<Rock>

в форуме Рок, Панк, Метал, Альтернатива, Размер: 551.06 МБ, Здоровье: 100%

Anonymous

0
16|1

73
4

16 мар 2014, 00:16

Anonymous Перейти к последнему сообщению



Сейчас этот форум просматривают: нет зарегистрированных пользователей и гости: 1


Вы не можете начинать темы
Вы не можете отвечать на сообщения
Вы не можете редактировать свои сообщения
Вы не можете удалять свои сообщения
Вы не можете добавлять вложения

Перейти:  

!ВНИМАНИЕ!
 Ресурс не предоставляет электронные версии произведений, а занимается лишь коллекционированием и каталогизацией ссылок, присылаемых и публикуемых на форуме нашими читателями. Если вы являетесь правообладателем какого-либо представленного материала и не желаете чтобы ссылка на него находилась в нашем каталоге, свяжитесь с нами и мы незамедлительно удалим её. Файлы для обмена на трекере предоставлены пользователями сайта, и администрация не несёт ответственности за их содержание. Просьба не заливать файлы, защищенные авторскими правами, а также файлы нелегального содержания!