На всех торрентах на трекере установлена скидка на скачивание в размере 100 процентов(а).
 Возможность скачивания торрента НЕ зависит от ограничений при низком ратио, низком аплоаде, требуемом ратио или требуемом аплоаде.


Начать новую тему Ответить на тему
Статистика раздачи
Размер: 7.39 ГБ | Добавлен: 07 сен 2014, 14:12 | Скачали: 404
Сидеров: 13  [0 байт/сек]    Личеров: 2  [0 байт/сек]
Пред. тема | След. тема 

Автор
Сообщение

СообщениеДобавлено: 07 сен 2014, 14:12 

Название: Тепловой удар / Солнечный удар
Оригинальное название: Heatstroke
Год выхода: 2013
Жанр: Триллер
Режиссер: Эвелин Пурселл
В ролях: Стивен Дорфф, Светлана Меткина, Андреа Роукс, Петер Стормаре, Мэйси Уильямс
О фильме:
Семейная поездка-сафари по пустыне омрачается убийством главы семейства. Встреча с браконьерами заставляет оставшихся в живых мачеху и падчерицу бороться за свои жизни.


Страна: США, Bold Films, Film Afrika Worldwide
Продолжительность: 01:31:38
Перевод: Любительский одноголосый (Хихикающий доктор)
Перевод фильма: JCWD

Кодек: H.264
Качество: BDRip 1080p
Видео: MPEG-4 AVC, 10655 Кбит/с, 1920х856, 23.976 кадр/с
Звук: Русский, английский (AC3, 6 ch, 448 Кбит/с)
Субтитры: Английские

Полное имя : E:Раздачи_EHeatstroke.2013.x264.BDRip.1080p.NovaLan.mkv
Формат : Matroska
Версия формата : Version 4 / Version 2
Размер файла : 7,39 Гбайт
Продолжительность : 1 ч. 31 м.
Общий поток : 11,5 Мбит/сек
Название фильма : Heatstroke 2013 - NovaLan
Дата кодирования : UTC 2014-09-07 08:59:16
Программа кодирования : mkvmerge v7.1.0 ('Good Love') 64bit built on Jul 27 2014 13:06:55
Библиотека кодирования : libebml v1.3.0 + libmatroska v1.4.1
DURATION : 01:25:36.513000000
NUMBER_OF_FRAMES : 650
NUMBER_OF_BYTES : 20482
_STATISTICS_WRITING_APP : mkvmerge v7.1.0 ('Good Love') 64bit built on Jul 27 2014 13:06:55
_STATISTICS_WRITING_DATE_UTC : 2014-09-07 08:59:16
_STATISTICS_TAGS : BPS DURATION NUMBER_OF_FRAMES NUMBER_OF_BYTES

Видео
Идентификатор : 1
Формат : AVC
Формат/Информация : Advanced Video Codec
Профиль формата : High@L4.1
Параметр CABAC формата : Да
Параметр ReFrames формата : 4 кадра
Идентификатор кодека : V_MPEG4/ISO/AVC
Продолжительность : 1 ч. 31 м.
Битрейт : 10,7 Мбит/сек
Ширина : 1920 пикселей
Высота : 856 пикселей
Соотношение сторон : 2,25:1
Частота кадров : 23,976 кадра/сек
Цветовое пространство : YUV
Субдискретизация насыщенности : 4:2:0
Битовая глубина : 8 бит
Тип развёртки : Прогрессивная
Бит/(Пиксели*Кадры) : 0.270
Размер потока : 6,67 Гбайт (90%)
Заголовок : Sergei7721
Библиотека кодирования : x264 core 133 r2334 a3ac64b
Настройки программы : cabac=1 / ref=4 / deblock=1:-1:-1 / analyse=0x3:0x113 / me=umh / subme=11 / psy=1 / psy_rd=1.00:0.20 / mixed_ref=1 / me_range=24 / chroma_me=1 / trellis=2 / 8x8dct=1 / cqm=0 / deadzone=21,11 / fast_pskip=0 / chroma_qp_offset=-3 / threads=12 / lookahead_threads=1 / sliced_threads=0 / nr=0 / decimate=0 / interlaced=0 / bluray_compat=0 / constrained_intra=0 / bframes=6 / b_pyramid=2 / b_adapt=2 / b_bias=0 / direct=3 / weightb=1 / open_gop=0 / weightp=2 / keyint=240 / keyint_min=23 / scenecut=40 / intra_refresh=0 / rc_lookahead=40 / rc=2pass / mbtree=0 / bitrate=10655 / ratetol=1.0 / qcomp=0.60 / qpmin=0 / qpmax=69 / qpstep=4 / cplxblur=20.0 / qblur=0.5 / vbv_maxrate=50000 / vbv_bufsize=62500 / nal_hrd=none / ip_ratio=1.40 / pb_ratio=1.30 / aq=1:1.00
Default : Да
Forced : Нет
DURATION : 01:31:38.035000000
NUMBER_OF_FRAMES : 131821
NUMBER_OF_BYTES : 7320245237
_STATISTICS_WRITING_APP : mkvmerge v7.1.0 ('Good Love') 64bit built on Jul 27 2014 13:06:55
_STATISTICS_WRITING_DATE_UTC : 2014-09-07 08:59:16
_STATISTICS_TAGS : BPS DURATION NUMBER_OF_FRAMES NUMBER_OF_BYTES

Аудио #1
Идентификатор : 2
Формат : AC-3
Формат/Информация : Audio Coding 3
Расширение режима : CM (complete main)
Параметр Endianness формата : Big
Идентификатор кодека : A_AC3
Продолжительность : 1 ч. 31 м.
Вид битрейта : Постоянный
Битрейт : 448 Кбит/сек
Каналы : 6 каналов
Расположение каналов : Front: L C R, Side: L R, LFE
Частота : 48,0 КГц
Битовая глубина : 16 бит
Метод сжатия : С потерями
Размер потока : 294 Мбайт (4%)
Язык : Russian
Default : Да
Forced : Нет

Аудио #2
Идентификатор : 3
Формат : AC-3
Формат/Информация : Audio Coding 3
Расширение режима : CM (complete main)
Параметр Endianness формата : Big
Идентификатор кодека : A_AC3
Продолжительность : 1 ч. 31 м.
Вид битрейта : Постоянный
Битрейт : 448 Кбит/сек
Каналы : 6 каналов
Расположение каналов : Front: L C R, Side: L R, LFE
Частота : 48,0 КГц
Битовая глубина : 16 бит
Метод сжатия : С потерями
Размер потока : 294 Мбайт (4%)
Язык : English
Default : Нет
Forced : Нет

Текст
Идентификатор : 4
Формат : UTF-8
Идентификатор кодека : S_TEXT/UTF8
Идентификатор кодека/Информация : UTF-8 Plain Text
Язык : English
Default : Нет
Forced : Нет

Меню
00:00:00.000 : en:00:00:00.000
00:06:14.708 : en:00:06:14.708
00:11:39.991 : en:00:11:39.991
00:19:19.075 : en:00:19:19.075
00:24:25.798 : en:00:24:25.798
00:30:08.223 : en:00:30:08.223
00:36:53.461 : en:00:36:53.461
00:42:09.110 : en:00:42:09.110
00:47:36.312 : en:00:47:36.312
00:53:51.937 : en:00:53:51.937
00:59:54.883 : en:00:59:54.883
01:05:59.497 : en:01:05:59.497
01:12:30.763 : en:01:12:30.763
01:18:08.350 : en:01:18:08.350
01:23:46.605 : en:01:23:46.605
01:28:51.618 : en:01:28:51.618
01:31:37.992 : en:01:31:37.992


Релиз группы NovaLan
Автор релиза Sergei7721






Релиз от:
загрузка...
Правила, инструкции, FAQ!!!
Торрент  Добавлен [07 сен 2014, 14:12] Скачать торрент
Скачать торрент
[ Размер 37.48 КБ / Просмотров 5 ]

Статус
Проверен 
 
Размер  7.39 ГБ
Приватный: Нет (DHT включён)
.torrent скачан  404
Как залить торрент? | Как скачать Torrent? | Как смотреть и слушать онлайн?  


     Отправить личное сообщение
   
Страница 1 из 1
Показать сообщения за:  Поле сортировки  
Начать новую тему Ответить на тему

   Похожие торренты   Автор   Ответы   Просмотры   Последнее сообщение 
В этой теме нет новых непрочитанных сообщений. Скачать торрент Проверен Тепловой удар / Heatstroke (2013) WEB-DLRip | L1

в форуме Триллеры, Размер: 1.36 ГБ, Здоровье: 0%

Anonymous

0
0|0

98
0

10 июл 2014, 21:08

Anonymous Перейти к последнему сообщению

В этой теме нет новых непрочитанных сообщений. Скачать торрент Проверен Солнечный удар (2014) HDTVRip

в форуме Новинки кино, Размер: 2.65 ГБ, Здоровье: 70%

Anonymous

0
147|209

256
92

05 ноя 2014, 07:00

Anonymous Перейти к последнему сообщению

В этой теме нет новых непрочитанных сообщений. Скачать торрент Проверен Солнечный удар (2014) HDTV 1080i

в форуме Новинки кино, Размер: 10.33 ГБ, Здоровье: 100%

Anonymous

0
296|10

243
2944

05 ноя 2014, 07:02

Anonymous Перейти к последнему сообщению

В этой теме нет новых непрочитанных сообщений. Скачать торрент Проверен Сборник - Солнечный Удар Музыкальных Новинок (2015) MP3

в форуме 50/50 (сборники), Размер: 862.3 МБ, Здоровье: 100%

Anonymous

0
541|361

215
380

05 июл 2015, 22:33

Anonymous Перейти к последнему сообщению

В этой теме нет новых непрочитанных сообщений. Скачать торрент Проверен (Rock/Pop) Солнечный Удар (ех-Препинаки) полная дискография 2000-2009, MP3, 320 kbps

в форуме Русский Рок, Размер: 492.88 МБ, Здоровье: 100%

Anonymous

0
2|1

16
0

22 авг 2016, 01:48

Anonymous Перейти к последнему сообщению



Сейчас этот форум просматривают: нет зарегистрированных пользователей и гости: 1


Вы не можете начинать темы
Вы не можете отвечать на сообщения
Вы не можете редактировать свои сообщения
Вы не можете удалять свои сообщения
Вы не можете добавлять вложения

Перейти:  

!ВНИМАНИЕ!
 Ресурс не предоставляет электронные версии произведений, а занимается лишь коллекционированием и каталогизацией ссылок, присылаемых и публикуемых на форуме нашими читателями. Если вы являетесь правообладателем какого-либо представленного материала и не желаете чтобы ссылка на него находилась в нашем каталоге, свяжитесь с нами и мы незамедлительно удалим её. Файлы для обмена на трекере предоставлены пользователями сайта, и администрация не несёт ответственности за их содержание. Просьба не заливать файлы, защищенные авторскими правами, а также файлы нелегального содержания!