На всех торрентах на трекере установлена скидка на скачивание в размере 100 процентов(а).
 Возможность скачивания торрента НЕ зависит от ограничений при низком ратио, низком аплоаде, требуемом ратио или требуемом аплоаде.


Начать новую тему Ответить на тему
Статистика раздачи
Размер: 6.8 ГБ | Добавлен: 07 сен 2014, 12:58 | Скачали: 1
Сидеров: 101  [0 байт/сек]    Личеров: 52  [0 байт/сек]
Пред. тема | След. тема 

Автор
Сообщение

СообщениеДобавлено: 07 сен 2014, 12:58 

Год выпуска: 2014
Производство: Франция - Bethsabée Mucho, Canal+ [fr], Chaocorp DГ©veloppement
Жанр: Драма, мелодрама

Режиссер: Лиза Азуэлос / Lisa Azuelos
Актеры: Софи Марсо, Франсуа Клюзе, Лиза Азуэлос, Александр Астье, Артур Бензакен, Джонатан Коэн, Нильс Шнайдер, Стефани Мурат, Оливия Коте, Сайрус Шахиди

Описание фильма:
Случайная встреча семьянина с красивой женщиной порождает взаимное притяжение между ними… До встречи друг с другом Эльза и Пьер жили счастливыми, размеренными жизнями со своими семьями. Но знакомство переворачивает их судьбы с ног на голову. С первой же минуты их захватывает чувство настолько сильное, что они не могут ему противостоять. Сперва Эльза и Пьер поддаются захватившей их страсти, но, не желая причинять боль близким, они принимают решение расстаться. Однако неумолимая судьба снова и снова сводит их друг с другом. Их жизни переплетаются все сильнее, границы реальности размываются, и не воплощенные фантазии захватывают влюбленных.

Перевод: Дублированный



Дата мировой премьеры: 12 января 2014
Дата российской премьеры: 3 июля 2014, «Централ Партнершип»
Дата выхода DVD релиза: 19 августа 2014, «CD Land»

Продолжительность: 01:21:31
Качество видео: BDRip 1080p [profile-LQ]

Видеокодек: MPEG-4 AVC/H.264
Видео: 10.0 Мбит/с, 1920x808, 24 кадр/с
Аудио #1: Русский: AC3 5.1, 448 Кбит/с, 48 kHz, 16 bit
Аудио #2: Французский: DTS 5.1, 1536 Кбит/с, 48 kHz, 24 bit

Сохранены оригинальные чаптеры как на Blu-Ray
Общее
Уникальный идентификатор : 177417521264104640058696341285366070244 (0x85795F26D2D1E3999003B0851156FBE4)
Полное имя : D:\Video\Une.rencontre.2014.BDRip.1080p.mkv
Формат : Matroska
Версия формата : Version 4 / Version 2
Размер файла : 6,80 Гбайт
Продолжительность : 1 ч. 21 м.
Общий поток : 11,9 Мбит/сек
Дата кодирования : UTC 2014-09-04 11:22:51
Программа кодирования : mkvmerge v7.1.0 ('Good Love') 64bit built on Jul 27 2014 13:06:55
Библиотека кодирования : libebml v1.3.0 + libmatroska v1.4.1

Видео
Идентификатор : 1
Формат : AVC
Формат/Информация : Advanced Video Codec
Профиль формата :
Параметр CABAC формата : Да
Параметр ReFrames формата : 5 кадров
Идентификатор кодека : V_MPEG4/ISO/AVC
Продолжительность : 1 ч. 21 м.
Битрейт : 10,0 Мбит/сек
Ширина : 1920 пикселей
Высота : 808 пикселей
Соотношение сторон : 2,40:1
Частота кадров : 24,000 кадра/сек
Цветовое пространство : YUV
Субдискретизация насыщенности : 4:2:0
Битовая глубина : 8 бит
Тип развёртки : Прогрессивная
Бит/(Пиксели*Кадры) : 0.269
Размер потока : 5,55 Гбайт (82%)
Библиотека кодирования : x264 core 142 r2479 dd79a61
Настройки программы : cabac=1 / ref=5 / deblock=1:0:0 / analyse=0x3:0x133 / me=umh / subme=8 / psy=1 / psy_rd=1.00:0.00 / mixed_ref=1 / me_range=16 / chroma_me=1 / trellis=1 / 8x8dct=1 / cqm=0 / deadzone=21,11 / fast_pskip=0 / chroma_qp_offset=-2 / threads=12 / lookahead_threads=2 / sliced_threads=0 / nr=0 / decimate=1 / interlaced=0 / bluray_compat=0 / constrained_intra=0 / bframes=3 / b_pyramid=2 / b_adapt=2 / b_bias=0 / direct=3 / weightb=1 / open_gop=0 / weightp=2 / keyint=250 / keyint_min=24 / scenecut=40 / intra_refresh=0 / rc_lookahead=50 / rc=2pass / mbtree=1 / bitrate=10004 / ratetol=1.0 / qcomp=0.60 / qpmin=0 / qpmax=69 / qpstep=4 / cplxblur=20.0 / qblur=0.5 / ip_ratio=1.40 / aq=1:1.00
Язык : English
Default : Да
Forced : Нет

Аудио #1
Идентификатор : 2
Формат : AC-3
Формат/Информация : Audio Coding 3
Расширение режима : CM (complete main)
Идентификатор кодека : A_AC3
Продолжительность : 1 ч. 21 м.
Вид битрейта : Постоянный
Битрейт : 448 Кбит/сек
Каналы : 6 каналов
Расположение каналов : Front: L C R, Side: L R, LFE
Частота : 48,0 КГц
Битовая глубина : 16 бит
Метод сжатия : С потерями
Размер потока : 261 Мбайт (4%)
Язык : Russian
Default : Да
Forced : Да

Аудио #2
Идентификатор : 3
Формат : DTS
Формат/Информация : Digital Theater Systems
Идентификатор кодека : A_DTS
Продолжительность : 1 ч. 21 м.
Вид битрейта : Постоянный
Битрейт : 1510 Кбит/сек
Каналы : 6 каналов
Расположение каналов : Front: L C R, Side: L R, LFE
Частота : 48,0 КГц
Битовая глубина : 24 бит
Метод сжатия : С потерями
Размер потока : 880 Мбайт (13%)
Заголовок : French
Язык : French
Default : Нет
Forced : Нет

Меню
00:00:00.000 : en:00:00:00.000
00:04:29.167 : en:00:04:29.167
00:09:35.958 : en:00:09:35.958
00:18:05.250 : en:00:18:05.250
00:21:21.583 : en:00:21:21.583
00:25:02.292 : en:00:25:02.292
00:32:27.125 : en:00:32:27.125
00:40:10.458 : en:00:40:10.458
00:49:19.083 : en:00:49:19.083
00:57:24.667 : en:00:57:24.667
01:08:58.833 : en:01:08:58.833
01:15:55.583 : en:01:15:55.583
Чтобы история никогда не кончалась, не начинай ее…

Перед просмотром, казалось, что это банальный фильм о запретной любви, об отношениях вне брака. По описанию кажется, что двое, наконец, нашли свою любовь, ту самую настоящую… но трагедия в том, что он — женат, а она — уже нет, у обоих есть дети…

Однако фильм сумел меня приятно удивить и порадовать.

С намеками на постельные сцены, но при этом как бы даже их отсутствие. Хотя я и ярый противник откровенных сцен, здесь не было той пошлости. Казалось, что и мне, как главным героям, привиделись эти поцелуи и ласки, словно я тоже замечталась…

Основным плюсом фильма является атмосфера легкости. Несмотря на трудную ситуацию и многозначительные фразы героев, на душе нет тяжести. В конце просмотра остается приятное послевкусие.

«Не знаю, чего я больше боюсь? Встретить тебя вновь или больше никогда не увидеть».

На кого ориентировано кино? Наверно, не на каждого зрителя. Скорее для тех, кто живет или пожил уже в браке, кто сталкивался с такой же ситуацией. Ведь для остальных это будет фильм об измене или грустная история любви. Хотя по мне, это счастливая история. Самая счастливая. Ведь она закончилась, так и не успев начаться.

«Я выбираю вечность»

Герой с осознанием совершал поступки, избегая соблазна и в то же время, не сопротивляясь ей особо. В фильме не стоял вопрос выбора между старой жизнью и новой. Это было ясно. И Пьерр (Франсуа Клюзе) никого не обманывал, ни себя, ни Эльзу (Софи Марсо). И она не ждала ничего. Все вроде бы так беспечно, но в то же время обдуманно.

Игра актеров на высшем уровне, они даже не играли, а жили… так все просто, легко, чувственно и искренне! Я не вспоминала другую Софи Марсо или Франсуа Клюзе из фильма «1+1». Идеальная пара!

Этот фильм стоит посмотреть. Каждый найдет частичку своего, думаю. Не ищите пошлости, предательства и измен. Здесь все гораздо глубже, хотя фильм и не философский. Все очень просто, ясно и по-французски легко.

Смотрите и наслаждайтесь.
Скриншоты:


загрузка...
Правила, инструкции, FAQ!!!
Торрент  Добавлен [07 сен 2014, 12:58] Скачать торрент
Скачать торрент
[ Размер 34.72 КБ / Просмотров 12 ]

Статус
Проверен 
 
Размер  6.8 ГБ
Приватный: Нет (DHT включён)
.torrent скачан  1
Как залить торрент? | Как скачать Torrent? | Как смотреть и слушать онлайн?  


     Отправить личное сообщение
   
Страница 1 из 1
Показать сообщения за:  Поле сортировки  
Начать новую тему Ответить на тему

   Похожие торренты   Автор   Ответы   Просмотры   Последнее сообщение 
В этой теме нет новых непрочитанных сообщений. Скачать торрент Проверен Одна встреча / Une rencontre (2014) DVDRip | D | лицензия

в форуме Драмы, Мелодрамы, Размер: 1.46 ГБ, Здоровье: 100%

Anonymous

0
693|34

83
5623

20 авг 2014, 16:15

Anonymous Перейти к последнему сообщению

В этой теме нет новых непрочитанных сообщений. Скачать торрент Проверен Одна война (Вера Глаголева) [2009, Россия, драма, BDRip 1080p]

в форуме Наше кино (HD Video), Размер: 8.11 ГБ, Здоровье: 100%

Гость

0
5|2

40
0

12 апр 2015, 10:59

Гость Перейти к последнему сообщению

В этой теме нет новых непрочитанных сообщений. Скачать торрент Проверен Два дня, одна ночь / Deux jours, une nuit (2014) BDRip [576p] iPad

в форуме Фильмы для iPod, iPhone, iPad, Размер: 1.62 ГБ, Здоровье: 100%

Гость

0
7|1

108
0

12 дек 2014, 22:56

Гость Перейти к последнему сообщению

В этой теме нет новых непрочитанных сообщений. Скачать торрент Проверен Бушков Александр - Первая встреча, последняя встреча [Созонтов Александр, 2013 г., 128 kbps, MP3]

в форуме Российская фантастика, фэнтези, мистика, ужасы, фанфики, Размер: 93.77 МБ, Здоровье: 0%

Anonymous

0
0|0

1
0

10 сен 2016, 18:54

Anonymous Перейти к последнему сообщению

В этой теме нет новых непрочитанных сообщений. Скачать торрент Мы - одна команда / We Are Marshall (МакДжи / McG) [2006 г., драма, спорт, BDRip-AVC]

в форуме Драмы, Мелодрамы, Размер: 2.14 ГБ, Здоровье: 100%

Anonymous

0
11|4

31
0

16 апр 2014, 07:50

Anonymous Перейти к последнему сообщению



Сейчас этот форум просматривают: нет зарегистрированных пользователей и гости: 2


Вы не можете начинать темы
Вы не можете отвечать на сообщения
Вы не можете редактировать свои сообщения
Вы не можете удалять свои сообщения
Вы не можете добавлять вложения

Перейти:  

!ВНИМАНИЕ!
 Ресурс не предоставляет электронные версии произведений, а занимается лишь коллекционированием и каталогизацией ссылок, присылаемых и публикуемых на форуме нашими читателями. Если вы являетесь правообладателем какого-либо представленного материала и не желаете чтобы ссылка на него находилась в нашем каталоге, свяжитесь с нами и мы незамедлительно удалим её. Файлы для обмена на трекере предоставлены пользователями сайта, и администрация не несёт ответственности за их содержание. Просьба не заливать файлы, защищенные авторскими правами, а также файлы нелегального содержания!