На всех торрентах на трекере установлена скидка на скачивание в размере 100 процентов(а).
 Возможность скачивания торрента НЕ зависит от ограничений при низком ратио, низком аплоаде, требуемом ратио или требуемом аплоаде.


Начать новую тему Ответить на тему
Статистика раздачи
Размер: 4.61 ГБ | Добавлен: 06 сен 2014, 22:52 | Скачали: 10
Сидеров: 11  [0 байт/сек]    Личеров: 20  [0 байт/сек]
Пред. тема | След. тема 

Автор
Сообщение

СообщениеДобавлено: 06 сен 2014, 22:52 

Название: Бог не умер
Оригинальное название: God's Not Dead
Год выпуска: 2014
Жанр: Драма
Режиссер: Харольд Кронк

В ролях: Уилли Робертсон, Дэвид Э.Р. Уайт, Шэйн Харпер, Кевин Сорбо, Марко Хэнлиэн, Алекс Аристидис, Лиза Арнольд, Ленор Бэнкс, Томми Блэйз

О фильме: Извечное столкновение религии и атеизма. На сей раз полем боя для защиты своих идеалов будет служить учебная аудитория, где профессор Рэдиссон сойдется в нешуточном сражении со своим учеником, верящим в Бога всей душой.



Выпущено: США, Greg Jenkins Productions, Pure Flix Entertainment, Red Entertainment Group, Toy Gun Films
Продолжительность: 01:52:45
Перевод: Любительский (одноголосый, закадровый)

Качество: BDRip 720p
Формат: MKV
Видео: MPEG4/AVC, 1280х720 (16:9), 5080 Кбит/сек, 23.976 кадра/сек
Аудио 1: AC3, 2 канала, 128 Кбит/сек | Русский
Аудио 2: AC3, 6 каналов, 640 Кбит/сек | Английский
Субтитры: Русские, английские (Full, SDH, Colored)
Навигация по главам: Есть
Общее
Уникальный идентификатор : 226115795317784750157009789210632284719 (0xAA1C516FAAA03776BB0D78572F726A2F)
Полное имя : Gods Not Dead. (2014) BDRip 720p.mkv
Формат : Matroska
Версия формата : Version 2
Размер файла : 4,61 Гбайт
Продолжительность : 1 ч. 52 м.
Общий поток : 5848 Кбит/сек
Название фильма : Gods Not Dead. 2014
Дата кодирования : UTC 2014-09-06 14:28:36
Программа кодирования : mkvmerge v5.8.0 ('No Sleep / Pillow') built on Sep 2 2012 15:37:04
Библиотека кодирования : libebml v1.2.3 + libmatroska v1.3.0
Видео
Идентификатор : 1
Формат : AVC
Формат/Информация : Advanced Video Codec
Профиль формата : High@L4.1
Параметр CABAC формата : Да
Параметр ReFrames формата : 8 кадров
Идентификатор кодека : V_MPEG4/ISO/AVC
Продолжительность : 1 ч. 52 м.
Битрейт : 5080 Кбит/сек
Ширина : 1280 пикселей
Высота : 720 пикселей
Соотношение сторон : 16:9
Режим частоты кадров : Постоянный
Частота кадров : 23,976 кадра/сек
Цветовое пространство : YUV
Субдискретизация насыщенности : 4:2:0
Битовая глубина : 8 бит
Тип развёртки : Прогрессивная
Бит/(Пиксели*Кадры) : 0.230
Размер потока : 3,91 Гбайт (85%)
Заголовок : CHD
Библиотека кодирования : x264 core 138 r2356 a1d3d17
Настройки программы : cabac=1 / ref=8 / deblock=1:-3:-3 / analyse=0x3:0x113 / me=umh / subme=10 / psy=1 / psy_rd=1.00:0.05 / mixed_ref=1 / me_range=32 / chroma_me=1 / trellis=2 / 8x8dct=1 / cqm=0 / deadzone=21,11 / fast_pskip=0 / chroma_qp_offset=-2 / threads=18 / lookahead_threads=1 / sliced_threads=0 / nr=0 / decimate=1 / interlaced=0 / bluray_compat=0 / constrained_intra=0 / bframes=4 / b_pyramid=2 / b_adapt=2 / b_bias=0 / direct=3 / weightb=1 / open_gop=0 / weightp=2 / keyint=250 / keyint_min=23 / scenecut=40 / intra_refresh=0 / rc=2pass / mbtree=0 / bitrate=5080 / ratetol=1.0 / qcomp=0.70 / qpmin=0 / qpmax=69 / qpstep=4 / cplxblur=20.0 / qblur=0.5 / ip_ratio=1.40 / pb_ratio=1.30 / aq=2:1.00
Язык : English
Default : Да
Forced : Нет
Аудио #1
Идентификатор : 2
Формат : AC-3
Формат/Информация : Audio Coding 3
Расширение режима : CM (complete main)
Параметр Endianness формата : Big
Идентификатор кодека : A_AC3
Продолжительность : 1 ч. 52 м.
Вид битрейта : Постоянный
Битрейт : 128 Кбит/сек
Каналы : 2 канала
Расположение каналов : Front: L R
Частота : 48,0 КГц
Битовая глубина : 16 бит
Метод сжатия : С потерями
Размер потока : 103 Мбайт (2%)
Заголовок : Rus | L1
Язык : Russian
Default : Да
Forced : Нет
Аудио #2
Идентификатор : 3
Формат : AC-3
Формат/Информация : Audio Coding 3
Расширение режима : CM (complete main)
Параметр Endianness формата : Big
Идентификатор кодека : A_AC3
Продолжительность : 1 ч. 52 м.
Вид битрейта : Постоянный
Битрейт : 640 Кбит/сек
Каналы : 6 каналов
Расположение каналов : Front: L C R, Side: L R, LFE
Частота : 48,0 КГц
Битовая глубина : 16 бит
Метод сжатия : С потерями
Размер потока : 516 Мбайт (11%)
Заголовок : Eng
Язык : English
Default : Нет
Forced : Нет
Текст #1
Идентификатор : 4
Формат : UTF-8
Идентификатор кодека : S_TEXT/UTF8
Идентификатор кодека/Информация : UTF-8 Plain Text
Заголовок : Rus | Full
Язык : Russian
Default : Нет
Forced : Нет
Текст #2
Идентификатор : 5
Формат : UTF-8
Идентификатор кодека : S_TEXT/UTF8
Идентификатор кодека/Информация : UTF-8 Plain Text
Заголовок : Full
Язык : English
Default : Нет
Forced : Нет
Текст #3
Идентификатор : 6
Формат : UTF-8
Идентификатор кодека : S_TEXT/UTF8
Идентификатор кодека/Информация : UTF-8 Plain Text
Заголовок : SDH
Язык : English
Default : Нет
Forced : Нет
Текст #4
Идентификатор : 7
Формат : UTF-8
Идентификатор кодека : S_TEXT/UTF8
Идентификатор кодека/Информация : UTF-8 Plain Text
Заголовок : SDH-Colored
Язык : English
Default : Нет
Forced : Нет
Меню
00:00:00.000 : en:00:00:00.000
00:04:51.291 : en:00:04:51.291
00:08:08.863 : en:00:08:08.863
00:16:54.639 : en:00:16:54.639
00:23:23.277 : en:00:23:23.277
00:28:08.353 : en:00:28:08.353
00:32:43.336 : en:00:32:43.336
00:41:40.206 : en:00:41:40.206
00:44:27.039 : en:00:44:27.039
00:48:48.134 : en:00:48:48.134
00:54:08.245 : en:00:54:08.245
01:00:17.656 : en:01:00:17.656
01:05:25.880 : en:01:05:25.880
01:12:30.888 : en:01:12:30.888
01:19:44.279 : en:01:19:44.279
01:27:15.689 : en:01:27:15.689
01:31:33.113 : en:01:31:33.113
01:37:52.200 : en:01:37:52.200
01:43:09.683 : en:01:43:09.683
01:48:28.335 : en:01:48:28.335


Релиз от:
загрузка...
Правила, инструкции, FAQ!!!
Торрент  Добавлен [06 сен 2014, 22:52] Скачать торрент
Скачать торрент
[ Размер 12.17 КБ / Просмотров 4 ]

Статус
Проверен 
 
Размер  4.61 ГБ
Приватный: Нет (DHT включён)
.torrent скачан  10
Как залить торрент? | Как скачать Torrent? | Как смотреть и слушать онлайн?  


     Отправить личное сообщение
   
Страница 1 из 1
Показать сообщения за:  Поле сортировки  
Начать новую тему Ответить на тему

   Похожие торренты   Автор   Ответы   Просмотры   Последнее сообщение 
В этой теме нет новых непрочитанных сообщений. Скачать торрент Проверен [iPad] Бог не умер / God's Not Dead (Харольд Кронк / Harold Cronk ) [2014, США, Драма, HDRip, SD (576p)] VO + Original + sub (rus)

в форуме Фильмы для iPod, iPhone, iPad, Размер: 1.95 ГБ, Здоровье: 100%

Гость

0
56|19

18
0

11 май 2015, 01:40

Гость Перейти к последнему сообщению

В этой теме нет новых непрочитанных сообщений. Скачать торрент Проверен Мертвые Земли / The Dead Lands (2014) BDRip 720p

в форуме 720p | 1080p, Размер: 951.68 МБ, Здоровье: 100%

Гость

0
215|114

104
500

14 апр 2015, 17:35

Гость Перейти к последнему сообщению

В этой теме нет новых непрочитанных сообщений. Скачать торрент Проверен Гол живых мертвецов / Goal of the Dead (2014) BDRip 720p | L1

в форуме 720p | 1080p, Размер: 5.61 ГБ, Здоровье: 100%

Anonymous

0
18|0

52
196

17 июн 2014, 21:46

Anonymous Перейти к последнему сообщению

В этой теме нет новых непрочитанных сообщений. Скачать торрент Проверен Alice Cooper: Raise the Dead – Live from Wacken (2014) BDRip 720p

в форуме Концерты (HD-Video), Размер: 4.37 ГБ, Здоровье: 100%

Гость

0
8|0

76
42

19 дек 2014, 16:40

Гость Перейти к последнему сообщению

В этой теме нет новых непрочитанных сообщений. Скачать торрент Проверен Быстрый и мертвый / The Quick and the Dead (1995) BDRip 720p

в форуме 720p | 1080p, Размер: 5.34 ГБ, Здоровье: 100%

Гость

0
10|2

17
25

30 ноя 2014, 10:34

Гость Перейти к последнему сообщению



Сейчас этот форум просматривают: нет зарегистрированных пользователей и гости: 1


Вы не можете начинать темы
Вы не можете отвечать на сообщения
Вы не можете редактировать свои сообщения
Вы не можете удалять свои сообщения
Вы не можете добавлять вложения

Перейти:  

!ВНИМАНИЕ!
 Ресурс не предоставляет электронные версии произведений, а занимается лишь коллекционированием и каталогизацией ссылок, присылаемых и публикуемых на форуме нашими читателями. Если вы являетесь правообладателем какого-либо представленного материала и не желаете чтобы ссылка на него находилась в нашем каталоге, свяжитесь с нами и мы незамедлительно удалим её. Файлы для обмена на трекере предоставлены пользователями сайта, и администрация не несёт ответственности за их содержание. Просьба не заливать файлы, защищенные авторскими правами, а также файлы нелегального содержания!