На всех торрентах на трекере установлена скидка на скачивание в размере 100 процентов(а).
 Возможность скачивания торрента НЕ зависит от ограничений при низком ратио, низком аплоаде, требуемом ратио или требуемом аплоаде.


Начать новую тему Ответить на тему
Статистика раздачи
Размер: 2.9 ГБ | Добавлен: 02 сен 2014, 16:24 | Скачали: 892
Сидеров: 68  [0 байт/сек]    Личеров: 11  [0 байт/сек]
Пред. тема | След. тема 

Автор
Сообщение

СообщениеДобавлено: 02 сен 2014, 16:24 

Название: Прогулка по солнечному свету
Оригинальное название: Walking on Sunshine
Год выхода: 2014
Жанр: мюзикл, мелодрама
Режиссер: Макс Джива, Дания Пасквини

В ролях: Ханна Артертон, Джулио Мария Беррути, Анабель Шолей, Грег Уайз, Леона Льюис, Кэти Брэнд, Дэнни Киррейн, Люк Хоуп, Адриан Палмер, Джоэль Коисси

О фильме: После красивого, бурного и стремительного романа Мэдди и Раф принимают решение пожениться. Мэдди счастлива. Она готовится к церемонии, приглашает гостей, среди которых — ее любимая сестра Тэйлор. Кто мог предположить, что между Рафом и Тэйлор была когда-то страстная любовь, которая, как оказалось, вовсе не угасла…



Выпущено: Великобритания
Продолжительность: 01:33:07
Озвучивание: Дублированное [iTunes]


Формат: MKV
Качество: WEB-DL 720p
Видео: 3981 Kb/s, 1280(960)x568
Аудио: AC3, 384 kb/s (6 ch)







Format : Matroska
Format version : Version 4 / Version 2
File size : 2.90 GiB
Duration : 1h 33mn
Overall bit rate : 4 454 Kbps
Encoded date : UTC 2014-09-01 19:56:04
Writing application : mkvmerge v6.8.0 ('Theme for Great Cities') 64bit built on Mar 2 2014 21:34:26
Writing library : libebml v1.3.0 + libmatroska v1.4.1

Video
ID : 1
Format : AVC
Format/Info : Advanced Video Codec
Format profile : Main@L3.1
Format settings, CABAC : No
Format settings, ReFrames : 2 frames
Codec ID : V_MPEG4/ISO/AVC
Duration : 1h 33mn
Bit rate : 3 981 Kbps
Width : 960 pixels
Height : 568 pixels
Display aspect ratio : 2.25:1
Frame rate : 25.000 fps
Color space : YUV
Chroma subsampling : 4:2:0
Bit depth : 8 bits
Scan type : Progressive
Bits/(Pixel*Frame) : 0.292
Stream size : 2.59 GiB (89%)
Language : English
Default : Yes
Forced : No
Color primaries : BT.709-5, BT.1361, IEC 61966-2-4, SMPTE RP177
Transfer characteristics : BT.709-5, BT.1361
Matrix coefficients : BT.709-5, BT.1361, IEC 61966-2-4 709, SMPTE RP177

Audio
ID : 2
Format : AC-3
Format/Info : Audio Coding 3
Mode extension : CM (complete main)
Format settings, Endianness : Big
Codec ID : A_AC3
Duration : 1h 33mn
Bit rate mode : Constant
Bit rate : 384 Kbps
Channel(s) : 6 channels
Channel positions : Front: L C R, Side: L R, LFE
Sampling rate : 48.0 KHz
Bit depth : 16 bits
Compression mode : Lossy
Stream size : 256 MiB (9%)
Language : Russian
Default : Yes
Forced : No

Menu
00:00:00.000 : en:Глава 1
00:05:03.000 : en:Глава 2
00:08:44.000 : en:Глава 3
00:13:39.000 : en:Глава 4
00:18:39.000 : en:Глава 5
00:26:03.000 : en:Глава 6
00:30:17.000 : en:Глава 7
00:35:18.000 : en:Глава 8
00:40:07.000 : en:Глава 9
00:44:40.000 : en:Глава 10
00:48:45.000 : en:Глава 11
00:54:47.000 : en:Глава 12
00:59:51.000 : en:Глава 13
01:04:18.000 : en:Глава 14
01:08:39.000 : en:Глава 15
01:13:55.000 : en:Глава 16
01:20:06.000 : en:Глава 17
01:24:38.000 : en:Глава 18
загрузка...
Правила, инструкции, FAQ!!!
Торрент  Добавлен [02 сен 2014, 16:24] Скачать торрент
Скачать торрент
[ Размер 15.11 КБ / Просмотров 5 ]

Статус
Проверен 
 
Размер  2.9 ГБ
Приватный: Нет (DHT включён)
.torrent скачан  892
Как залить торрент? | Как скачать Torrent? | Как смотреть и слушать онлайн?  


     Отправить личное сообщение
   
Страница 1 из 1
Показать сообщения за:  Поле сортировки  
Начать новую тему Ответить на тему

   Похожие торренты   Автор   Ответы   Просмотры   Последнее сообщение 
В этой теме нет новых непрочитанных сообщений. Скачать торрент Проверен Прогулка по солнечному свету / Walking on Sunshine (2014) WEB-DLRip | iTunes

в форуме Драмы, Мелодрамы, Размер: 1.37 ГБ, Здоровье: 100%

Anonymous

0
197|106

4753
367

02 сен 2014, 16:29

Anonymous Перейти к последнему сообщению

В этой теме нет новых непрочитанных сообщений. Скачать торрент Проверен Прогулка по солнечному свету / Walking on Sunshine (2014) BDRip [576p] iPad

в форуме Фильмы для iPod, iPhone, iPad, Размер: 1.69 ГБ, Здоровье: 100%

Anonymous

0
4|1

31
0

13 дек 2014, 00:12

Anonymous Перейти к последнему сообщению

В этой теме нет новых непрочитанных сообщений. Скачать торрент Проверен (Eurohouse / New Beat) Fax Yourself - 2 singles - (Walking On) Sunshine 89 + (Walking On) Sunshine 89 (Remix) [Vinyl Rip 24 bit / 96 kHz] - 1989/90, FLAC (tracks), lossless

в форуме Электронная музыка (оцифровки), Размер: 901.8 МБ, Здоровье: 0%

Anonymous

0
0|0

2
0

14 сен 2016, 23:22

Anonymous Перейти к последнему сообщению

В этой теме нет новых непрочитанных сообщений. Скачать торрент Проверен Прогулка / The Walk (2015) HDRip от Scarabey | iTunes

в форуме Триллеры, Размер: 1.45 ГБ, Здоровье: 100%

Anonymous

0
367|265

148
100

20 дек 2015, 20:49

Anonymous Перейти к последнему сообщению

В этой теме нет новых непрочитанных сообщений. Скачать торрент Проверен Прогулка / The Walk (2015) BDRip 1080p | iTunes

в форуме 720p | 1080p, Размер: 7.54 ГБ, Здоровье: 100%

Гость

0
599|35

299
1661

20 дек 2015, 20:54

Гость Перейти к последнему сообщению



Сейчас этот форум просматривают: нет зарегистрированных пользователей и гости: 3


Вы не можете начинать темы
Вы не можете отвечать на сообщения
Вы не можете редактировать свои сообщения
Вы не можете удалять свои сообщения
Вы не можете добавлять вложения

Перейти:  

!ВНИМАНИЕ!
 Ресурс не предоставляет электронные версии произведений, а занимается лишь коллекционированием и каталогизацией ссылок, присылаемых и публикуемых на форуме нашими читателями. Если вы являетесь правообладателем какого-либо представленного материала и не желаете чтобы ссылка на него находилась в нашем каталоге, свяжитесь с нами и мы незамедлительно удалим её. Файлы для обмена на трекере предоставлены пользователями сайта, и администрация не несёт ответственности за их содержание. Просьба не заливать файлы, защищенные авторскими правами, а также файлы нелегального содержания!