На всех торрентах на трекере установлена скидка на скачивание в размере 100 процентов(а).
 Возможность скачивания торрента НЕ зависит от ограничений при низком ратио, низком аплоаде, требуемом ратио или требуемом аплоаде.


Начать новую тему Ответить на тему
Статистика раздачи
Размер: 4.68 ГБ | Добавлен: 02 сен 2014, 15:52 | Скачали: 15
Сидеров: 13  [0 байт/сек]    Личеров: 23  [0 байт/сек]
Пред. тема | След. тема 

Автор
Сообщение

СообщениеДобавлено: 02 сен 2014, 15:52 

Название: Мальчишник
Оригинальное название: Bachelor Party
Год выхода: 1984
Жанр: Комедия
Режиссер: Нил Израэл

В ролях: Том Хэнкс, Роберт Прескотт, Уильям Теппер, Уэнди Джо Спербер, Гари Гроссман, Майкл Дудикофф, Чи-Ту Кумбука, Бен Слэк, Пэт Профт, Энн Гэйбис, Бронсон Пинчот, Джули Дэвис

О фильме:
В последний день перед свадьбой водитель школьного автобуса Рик решает собрать всех друзей на последнюю отвязную вечеринку по принципу «пива и женщин много не бывает». Его невеста Дебби берет ситуацию под свои контроль и возглавляет отряд верных подружек, направляющихся на мальчишник. Рик доблестно справится с ситуацией — отлично повеселится, не ударит в грязь лицом перед друзьями и при этом сохранит верность своей невесте.



Страна: США
Продолжительность: 01:41:07
Перевод: Профессиональный многоголосый закадровый


Кодек: matroska
Качество: HDTVRip
Видео: v_mpeg4/iso/avc, High@L4.1, 1280x694 (1.844:1), ~5664 kbps (0.261 bpp) 25.000 fps
Звук:
Audio: Dolby AC3 48000Hz 6ch [Russian (Audio 1) [Default]]
Audio: Dolby AC3 48000Hz stereo [English (Audio 2)]
Субтитры:
Русские (ru, s_text/utf8)
Англиские (en, s_text/utf8)

C:DownloadsFinishBachelor_Party_HDTVRip_720p.mkv
General
Unique ID : 226153077944717280743612408185829620791 (0xAA237F9C9367DA72BCD2448915267C37)
Complete name : C:DownloadsFinishBachelor_Party_HDTVRip_720p.mkv
Format : Matroska
Format version : Version 2
File size : 4.68 GiB
Duration : 1h 41mn
Overall bit rate : 6 631 Kbps
Encoded date : UTC 2011-03-21 15:29:10
Writing application : mkvmerge v4.4.0 ('Die Wiederkehr') built on Oct 31 2010 21:52:48
Writing library : libebml v1.0.0 + libmatroska v1.0.0
Video #1
ID : 1
Format : AVC
Format/Info : Advanced Video Codec
Format profile : High@L4.1
Format settings, CABAC : Yes
Format settings, ReFrames : 8 frames
Codec ID : V_MPEG4/ISO/AVC
Duration : 1h 41mn
Bit rate : 5 800 Kbps
Width : 1 280 pixels
Height : 694 pixels
Display aspect ratio : 1.85:1
Frame rate mode : Constant
Frame rate : 25.000 fps
Color space : YUV
Chroma subsampling : 4:2:0
Bit depth : 8 bits
Scan type : Progressive
Bits/(Pixel*Frame) : 0.261
Stream size : 4.00 GiB (85%)
Writing library : x264 core 110 r1804+354 32c37f5
Encoding settings : cabac=1 / ref=8 / deblock=1:-3:-3 / analyse=0x3:0x133 / me=umh / subme=9 / psy=1 / fade_compensate=0.00 / psy_rd=1.00:0.25 / mixed_ref=1 / me_range=24 / chroma_me=1 / trellis=2 / 8x8dct=1 / cqm=0 / deadzone=6,6 / fast_pskip=1 / chroma_qp_offset=-4 / threads=3 / sliced_threads=0 / nr=0 / decimate=0 / interlaced=0 / constrained_intra=0 / fgo=0 / bframes=3 / b_pyramid=2 / b_adapt=2 / b_bias=0 / direct=3 / weightb=1 / open_gop=0 / weightp=2 / keyint=250 / keyint_min=25 / scenecut=40 / intra_refresh=0 / rc_lookahead=60 / rc=2pass / mbtree=1 / bitrate=5800 / ratetol=1.0 / qcomp=0.80 / qpmin=0 / qpmax=51 / qpstep=4 / cplxblur=20.0 / qblur=0.5 / ip_ratio=1.10 / aq=1:0.50
Language : English
Default : Yes
Forced : No
Audio #2
ID : 2
Format : AC-3
Format/Info : Audio Coding 3
Mode extension : CM (complete main)
Format settings, Endianness : Big
Codec ID : A_AC3
Duration : 1h 41mn
Bit rate mode : Constant
Bit rate : 448 Kbps
Channel(s) : 6 channels
Channel positions : Front: L C R, Side: L R, LFE
Sampling rate : 48.0 KHz
Bit depth : 16 bits
Compression mode : Lossy
Stream size : 324 MiB (7%)
Language : Russian
Default : Yes
Forced : No
Audio #3
ID : 3
Format : AC-3
Format/Info : Audio Coding 3
Mode extension : CM (complete main)
Format settings, Endianness : Big
Codec ID : A_AC3
Duration : 1h 41mn
Bit rate mode : Constant
Bit rate : 384 Kbps
Channel(s) : 2 channels
Channel positions : Front: L R
Sampling rate : 48.0 KHz
Bit depth : 16 bits
Compression mode : Lossy
Delay relative to video : 49ms
Stream size : 278 MiB (6%)
Language : English
Default : No
Forced : No
Text #4
ID : 4
Format : UTF-8
Codec ID : S_TEXT/UTF8
Codec ID/Info : UTF-8 Plain Text
Language : Russian
Default : No
Forced : No
Text #5
ID : 5
Format : UTF-8
Codec ID : S_TEXT/UTF8
Codec ID/Info : UTF-8 Plain Text
Language : English
Default : No
Forced : No
загрузка...
Правила, инструкции, FAQ!!!
Торрент  Добавлен [02 сен 2014, 15:52] Скачать торрент
Скачать торрент
[ Размер 24.03 КБ / Просмотров 9 ]

Статус
Проверен 
 
Размер  4.68 ГБ
Приватный: Нет (DHT включён)
.torrent скачан  15
Как залить торрент? | Как скачать Torrent? | Как смотреть и слушать онлайн?  


     Отправить личное сообщение
   
Страница 1 из 1
Показать сообщения за:  Поле сортировки  
Начать новую тему Ответить на тему

   Похожие торренты   Автор   Ответы   Просмотры   Последнее сообщение 
В этой теме нет новых непрочитанных сообщений. Скачать торрент Проверен Мальчишник по-ирландски / The Stag / The Bachelor Weekend (2013) BDRip 720p | P

в форуме 720p | 1080p, Размер: 4.5 ГБ, Здоровье: 3%

Anonymous

0
2|63

38
0

16 ноя 2014, 01:42

Anonymous Перейти к последнему сообщению

В этой теме нет новых непрочитанных сообщений. Скачать торрент Проверен Courtney Barnett - Nobody Really Cares If You Go To The Party [2016, Indie Rock, HDTVRip 720p]

в форуме Концерты (HD-Video), Размер: 175.57 МБ, Здоровье: 100%

Anonymous

0
1|0

0
0

23 окт 2016, 16:22

Anonymous Перейти к последнему сообщению

В этой теме нет новых непрочитанных сообщений. Скачать торрент Проверен Прощальная вечеринка / House Party: Tonight’s the Night (2013) HDTVRip 720p от MediaClub | P

в форуме 720p | 1080p, Размер: 2.21 ГБ, Здоровье: 100%

Anonymous

0
48|0

34
1684

17 авг 2014, 15:36

Anonymous Перейти к последнему сообщению

В этой теме нет новых непрочитанных сообщений. Скачать торрент Проверен Guano Apes - Sunday Lover ( Die grosse Comedy Party ) 2011 HD 720p [2011, Alternative - Rock, HDTVRip]

в форуме Концерты (HD-Video), Размер: 216.83 МБ, Здоровье: 0%

Anonymous

0
0|0

3
0

23 окт 2016, 11:23

Anonymous Перейти к последнему сообщению

В этой теме нет новых непрочитанных сообщений. Скачать торрент Проверен МакSим - Полная дискография и видеография (2006-2015) FLAC, MP3, HDTVRip, HDTVRip 720p, HDTVRip 1080p

в форуме Дискографии (Отечественные), Размер: 24.2 ГБ, Здоровье: 100%

Гость

0
272|150

300
23

20 дек 2015, 12:22

Гость Перейти к последнему сообщению



Сейчас этот форум просматривают: нет зарегистрированных пользователей и гости: 3


Вы не можете начинать темы
Вы не можете отвечать на сообщения
Вы не можете редактировать свои сообщения
Вы не можете удалять свои сообщения
Вы не можете добавлять вложения

Перейти:  

!ВНИМАНИЕ!
 Ресурс не предоставляет электронные версии произведений, а занимается лишь коллекционированием и каталогизацией ссылок, присылаемых и публикуемых на форуме нашими читателями. Если вы являетесь правообладателем какого-либо представленного материала и не желаете чтобы ссылка на него находилась в нашем каталоге, свяжитесь с нами и мы незамедлительно удалим её. Файлы для обмена на трекере предоставлены пользователями сайта, и администрация не несёт ответственности за их содержание. Просьба не заливать файлы, защищенные авторскими правами, а также файлы нелегального содержания!