На всех торрентах на трекере установлена скидка на скачивание в размере 100 процентов(а).
 Возможность скачивания торрента НЕ зависит от ограничений при низком ратио, низком аплоаде, требуемом ратио или требуемом аплоаде.


Начать новую тему Ответить на тему
Статистика раздачи
Размер: 4.3 ГБ | Добавлен: 02 сен 2014, 15:46 | Скачали: 22
Сидеров: 18  [0 байт/сек]    Личеров: 12  [0 байт/сек]
Пред. тема | След. тема 

Автор
Сообщение

СообщениеДобавлено: 02 сен 2014, 15:46 

Название: Крепкий сон
Оригинальное название: Mientras duermes
Год выпуска: 2011
Жанр: Триллер, драма
Выпущено: Испания, Filmax Entertainment
Режиссер: Жауме Балагуэро

В ролях: Луис Тосар, Марта Этура, Альберто Сан Хуан, Петра Мартинес, Пеп Тосар, Карлос Ласарте, Ирис Альмейда, Манель Дуэсо, Ориол Хенис

О фильме: Главный герой — Сесар, работающий консьержем в небольшом жилом доме, в Барселоне. Кажется, что он маленький незаметный человек, который лишь открывает и закрывает двери, но на самом деле он тот, кто замечает и знает про жителей многоквартирного дома абсолютно всё. Он глубоко несчастлив и ищет хоть какую-нибудь причину для дальнейшего своего существования. День за днём он выполняет свою работу и, пока на него никто из жителей дома не обращает особого внимания, неустанно наблюдает за ними. Он знает каждую мелочь в их жизни, всё о них, а в особенности про одну из них…

Качество: BDRip 720p

Продолжительность: 01:40:59

Видео: MPEG-4 AVC, 4444 Кбит/с, 1280x544
Аудио 1: русский, 48 kHz, AC3, 6 ch, 448 kbps avg, [Авторский, Юрий Немахов]
Аудио 2: русский, 48 kHz, AC3, 6 ch, 448 kbps avg, [Любительский многоголосый, GalVid-Group]
Аудио 3: русский, 48 kHz, AC3, 2 ch, 192 kbps avg, [Любительский одноголосый, Samurai48]
Аудио 4: испанский, 48 kHz, AC3, 6 ch, 448 kbps avg, [Оригинал]
Субтитры: русские
Субтитры: английские

Имеются неименованные главы/чаптеры.

Исходник: gogamel74 (Кинозал)





Гойя, 2012 год
Номинации (1):
Лучшая мужская роль (Луис Тосар)
Общее
Уникальный идентификатор : 227172787868842533730567235857250258104 (0xAAE7E33146D82E73A41E74667F8C0CB8)
Полное имя : D:VideoKrepkij son.2011.BDRip.720p.mkv
Формат : Matroska
Версия формата : Version 4 / Version 2
Размер файла : 4,30 Гбайт
Продолжительность : 1 ч. 40 м.
Общий поток : 6101 Кбит/сек
Дата кодирования : UTC 2014-08-29 12:41:58
Программа кодирования : mkvmerge v6.9.1 ('Blue Panther') 64bit built on Apr 18 2014 18:23:38
Библиотека кодирования : libebml v1.3.0 + libmatroska v1.4.1

Видео
Идентификатор : 1
Формат : AVC
Формат/Информация : Advanced Video Codec
Профиль формата : High@L4.1
Параметр CABAC формата : Да
Параметр ReFrames формата : 9 кадров
Идентификатор кодека : V_MPEG4/ISO/AVC
Продолжительность : 1 ч. 40 м.
Битрейт : 4444 Кбит/сек
Ширина : 1280 пикселей
Высота : 544 пикселя
Соотношение сторон : 2,35:1
Режим частоты кадров : Постоянный
Частота кадров : 24,000 кадра/сек
Цветовое пространство : YUV
Субдискретизация насыщенности : 4:2:0
Битовая глубина : 8 бит
Тип развёртки : Прогрессивная
Бит/(Пиксели*Кадры) : 0.266
Размер потока : 3,13 Гбайт (73%)
Заголовок : BDRip -- STarankov
Библиотека кодирования : x264 core 142 r2431 ac76440
Настройки программы : cabac=1 / ref=9 / deblock=1:-1:-1 / analyse=0x3:0x113 / me=umh / subme=10 / psy=1 / psy_rd=1.00:0.15 / mixed_ref=1 / me_range=32 / chroma_me=1 / trellis=2 / 8x8dct=1 / cqm=0 / deadzone=21,11 / fast_pskip=0 / chroma_qp_offset=-3 / threads=6 / lookahead_threads=1 / sliced_threads=0 / nr=0 / decimate=1 / interlaced=0 / bluray_compat=0 / constrained_intra=0 / bframes=8 / b_pyramid=2 / b_adapt=2 / b_bias=0 / direct=1 / weightb=1 / open_gop=0 / weightp=2 / keyint=230 / keyint_min=23 / scenecut=40 / intra_refresh=0 / rc_lookahead=40 / rc=crf / mbtree=0 / crf=20.0 / qcomp=0.60 / qpmin=0 / qpmax=69 / qpstep=4 / vbv_maxrate=40000 / vbv_bufsize=50000 / crf_max=0.0 / nal_hrd=none / filler=0 / ip_ratio=1.40 / pb_ratio=1.30 / aq=1:1.00
Язык : Spanish
Default : Да
Forced : Нет

Аудио #1
Идентификатор : 2
Формат : AC-3
Формат/Информация : Audio Coding 3
Расширение режима : CM (complete main)
Параметр Endianness формата : Big
Идентификатор кодека : A_AC3
Продолжительность : 1 ч. 40 м.
Вид битрейта : Постоянный
Битрейт : 448 Кбит/сек
Каналы : 6 каналов
Расположение каналов : Front: L C R, Side: L R, LFE
Частота : 48,0 КГц
Битовая глубина : 16 бит
Метод сжатия : С потерями
Размер потока : 324 Мбайт (7%)
Заголовок : AVO (Юрий Немахов)
Язык : Russian
Default : Да
Forced : Нет

Аудио #2
Идентификатор : 3
Формат : AC-3
Формат/Информация : Audio Coding 3
Расширение режима : CM (complete main)
Параметр Endianness формата : Big
Идентификатор кодека : A_AC3
Продолжительность : 1 ч. 40 м.
Вид битрейта : Постоянный
Битрейт : 448 Кбит/сек
Каналы : 6 каналов
Расположение каналов : Front: L C R, Side: L R, LFE
Частота : 48,0 КГц
Битовая глубина : 16 бит
Метод сжатия : С потерями
Размер потока : 324 Мбайт (7%)
Заголовок : MVO (GalVid-Group, любительский)
Язык : Russian
Default : Нет
Forced : Нет

Аудио #3
Идентификатор : 4
Формат : AC-3
Формат/Информация : Audio Coding 3
Расширение режима : CM (complete main)
Параметр Endianness формата : Big
Идентификатор кодека : A_AC3
Продолжительность : 1 ч. 40 м.
Вид битрейта : Постоянный
Битрейт : 192 Кбит/сек
Каналы : 2 канала
Расположение каналов : Front: L R
Частота : 48,0 КГц
Битовая глубина : 16 бит
Метод сжатия : С потерями
Размер потока : 139 Мбайт (3%)
Заголовок : VO (Samurai48, любительский)
Язык : Russian
Default : Нет
Forced : Нет

Аудио #4
Идентификатор : 5
Формат : AC-3
Формат/Информация : Audio Coding 3
Расширение режима : CM (complete main)
Параметр Endianness формата : Big
Идентификатор кодека : A_AC3
Продолжительность : 1 ч. 40 м.
Вид битрейта : Постоянный
Битрейт : 448 Кбит/сек
Каналы : 6 каналов
Расположение каналов : Front: L C R, Side: L R, LFE
Частота : 48,0 КГц
Битовая глубина : 16 бит
Метод сжатия : С потерями
Размер потока : 324 Мбайт (7%)
Заголовок : Original
Язык : Spanish
Default : Нет
Forced : Нет

Текст #1
Идентификатор : 6
Формат : UTF-8
Идентификатор кодека : S_TEXT/UTF8
Идентификатор кодека/Информация : UTF-8 Plain Text
Заголовок : русский
Язык : Russian
Default : Нет
Forced : Нет

Текст #2
Идентификатор : 7
Формат : UTF-8
Идентификатор кодека : S_TEXT/UTF8
Идентификатор кодека/Информация : UTF-8 Plain Text
Заголовок : английский
Default : Нет
Forced : Нет

Меню
00:00:00.000 : en:00:00:00.000
00:08:12.667 : en:00:08:12.667
00:17:22.625 : en:00:17:22.625
00:28:02.125 : en:00:28:02.125
00:35:43.375 : en:00:35:43.375
00:41:57.875 : en:00:41:57.875
00:50:29.625 : en:00:50:29.625
00:58:28.000 : en:00:58:28.000
01:10:20.958 : en:01:10:20.958
01:15:23.792 : en:01:15:23.792
01:23:12.583 : en:01:23:12.583
01:28:54.833 : en:01:28:54.833

---[Information] [29.08.2014 13:24:07] raw [info]: 1280x544p 1:1 @ 24/1 fps (cfr)
---[Information] [29.08.2014 13:24:07] x264 [info]: using SAR=1/1
---[Information] [29.08.2014 13:24:07] x264 [info]: using cpu capabilities: MMX2 SSE2Fast SSSE3 SSE4.2
---[Information] [29.08.2014 13:24:07] x264 [info]: profile High, level 4.1
---[Information] [29.08.2014 19:24:00] x264 [info]: frame I:987 Avg QP:17.41 size: 86798
---[Information] [29.08.2014 19:24:00] x264 [info]: frame P:26698 Avg QP:18.85 size: 41390
---[Information] [29.08.2014 19:24:00] x264 [info]: frame B:117671 Avg QP:21.28 size: 19261
---[Information] [29.08.2014 19:24:00] x264 [info]: consecutive B-frames: 1.1% 0.8% 4.1% 7.7% 13.5% 58.4% 6.2% 2.7% 5.5%
---[Information] [29.08.2014 19:24:00] x264 [info]: mb I I16..4: 19.4% 69.2% 11.4%
---[Information] [29.08.2014 19:24:00] x264 [info]: mb P I16..4: 2.8% 18.1% 1.2% P16..4: 36.6% 23.7% 11.9% 0.0% 0.0% skip: 5.7%
---[Information] [29.08.2014 19:24:00] x264 [info]: mb B I16..4: 0.4% 3.8% 0.1% B16..8: 41.3% 10.7% 3.2% direct: 6.7% skip:33.8% L0:47.3% L1:46.5% BI: 6.2%
---[Information] [29.08.2014 19:24:00] x264 [info]: 8x8 transform intra:83.4% inter:66.3%
---[Information] [29.08.2014 19:24:00] x264 [info]: coded y,uvDC,uvAC intra: 89.4% 70.2% 36.8% inter: 31.8% 15.6% 1.7%
---[Information] [29.08.2014 19:24:00] x264 [info]: i16 v,h,dc,p: 51% 8% 22% 20%
---[Information] [29.08.2014 19:24:00] x264 [info]: i8 v,h,dc,ddl,ddr,vr,hd,vl,hu: 9% 6% 17% 10% 12% 12% 12% 11% 11%
---[Information] [29.08.2014 19:24:00] x264 [info]: i4 v,h,dc,ddl,ddr,vr,hd,vl,hu: 11% 6% 5% 10% 15% 15% 14% 12% 12%
---[Information] [29.08.2014 19:24:00] x264 [info]: i8c dc,h,v,p: 37% 27% 21% 15%
---[Information] [29.08.2014 19:24:00] x264 [info]: Weighted P-Frames: Y:4.0% UV:2.0%
---[Information] [29.08.2014 19:24:00] x264 [info]: ref P L0: 40.1% 9.2% 20.2% 8.0% 7.2% 5.0% 4.8% 2.6% 2.7% 0.2% 0.0%
---[Information] [29.08.2014 19:24:00] x264 [info]: ref B L0: 61.8% 15.0% 8.9% 5.0% 3.8% 3.3% 1.7% 0.5%
---[Information] [29.08.2014 19:24:00] x264 [info]: ref B L1: 89.3% 10.7%
---[Information] [29.08.2014 19:24:00] x264 [info]: kb/s:4566.49
---[Information] [29.08.2014 19:24:00] encoded 145356 frames, 6.73 fps, 4566.49 kb/s
--[Information] [29.08.2014 19:24:01] Final statistics
---[Information] [29.08.2014 19:24:01] Constant Quality Mode: Quality 20 computed...
---[Information] [29.08.2014 19:24:01] Video Bitrate Obtained (approximate): 4568 kbit/s
--[Information] [29.08.2014 19:24:01] MediaInfo
---[Information] [29.08.2014 19:24:01] File: D:RipKrepkij son.2011.BDRipKrepkij son.2011.BDRip.720p.mkv

загрузка...
Правила, инструкции, FAQ!!!
Торрент  Добавлен [02 сен 2014, 15:46] Скачать торрент
Скачать торрент
[ Размер 22.02 КБ / Просмотров 4 ]

Статус
Проверен 
 
Размер  4.3 ГБ
Приватный: Нет (DHT включён)
.torrent скачан  22
Как залить торрент? | Как скачать Torrent? | Как смотреть и слушать онлайн?  


     Отправить личное сообщение
   
Страница 1 из 1
Показать сообщения за:  Поле сортировки  
Начать новую тему Ответить на тему

   Похожие торренты   Автор   Ответы   Просмотры   Последнее сообщение 
В этой теме нет новых непрочитанных сообщений. Скачать торрент Проверен Крепкий сон / Mientras duermes (2011) BDRip | A, L, L1

в форуме Триллеры, Размер: 2.21 ГБ, Здоровье: 100%

Anonymous

0
58|22

51
486

02 сен 2014, 15:48

Anonymous Перейти к последнему сообщению

В этой теме нет новых непрочитанных сообщений. Скачать торрент Проверен [iPad] Крепкий орешек: Квадрология / Die Hard: Quadrology (Джон МакТирнан, Ренни Харлин, Лен Уайзман) [1988, 1990, 1995, 2007, Боевик, триллер, приключения, BDRip, 720p]

в форуме Фильмы для iPod, iPhone, iPad, Размер: 12.96 ГБ, Здоровье: 100%

Гость

0
18|6

87
0

11 май 2015, 01:22

Гость Перейти к последнему сообщению

В этой теме нет новых непрочитанных сообщений. Скачать торрент Крепкий орешек: Квадрология / Die Hard: Quadrilogy (1988-2007) BDRip 1080p

в форуме Квадралогии, Размер: 46.02 ГБ, Здоровье: 100%

Anonymous

0
10|4

279
40

18 дек 2013, 08:36

Anonymous Перейти к последнему сообщению

В этой теме нет новых непрочитанных сообщений. Скачать торрент Проверен Крепкий орешек 2 / Die Hard 2 (Ренни Харлин) [1990, США, боевик, триллер, криминал, BDRip SD (480p)] DUB, MVO, Original + SUB (rus, eng)

в форуме Фильмы для iPod, iPhone, iPad, Размер: 1.9 ГБ, Здоровье: 100%

Гость

0
16|5

40
0

14 май 2015, 00:00

Гость Перейти к последнему сообщению

В этой теме нет новых непрочитанных сообщений. Скачать торрент Проверен Крепкий орешек 4.0 / Live Free or Die Hard (Лен Уайзман) [2007, США, Великобритания, боевик, триллер, криминал, BDRip SD (480p)] DUB (rus, ukr), MVO, AVO, Original + SUB (rus, ukr, eng)

в форуме Фильмы для iPod, iPhone, iPad, Размер: 2.46 ГБ, Здоровье: 100%

Гость

0
50|16

45
0

11 май 2015, 01:26

Гость Перейти к последнему сообщению



Сейчас этот форум просматривают: нет зарегистрированных пользователей и гости: 1


Вы не можете начинать темы
Вы не можете отвечать на сообщения
Вы не можете редактировать свои сообщения
Вы не можете удалять свои сообщения
Вы не можете добавлять вложения

Перейти:  

!ВНИМАНИЕ!
 Ресурс не предоставляет электронные версии произведений, а занимается лишь коллекционированием и каталогизацией ссылок, присылаемых и публикуемых на форуме нашими читателями. Если вы являетесь правообладателем какого-либо представленного материала и не желаете чтобы ссылка на него находилась в нашем каталоге, свяжитесь с нами и мы незамедлительно удалим её. Файлы для обмена на трекере предоставлены пользователями сайта, и администрация не несёт ответственности за их содержание. Просьба не заливать файлы, защищенные авторскими правами, а также файлы нелегального содержания!