На всех торрентах на трекере установлена скидка на скачивание в размере 100 процентов(а).
 Возможность скачивания торрента НЕ зависит от ограничений при низком ратио, низком аплоаде, требуемом ратио или требуемом аплоаде.


Начать новую тему Ответить на тему
Статистика раздачи
Размер: 8.11 ГБ | Добавлен: 02 сен 2014, 15:42 | Скачали: 29
Сидеров: 49  [0 байт/сек]    Личеров: 58  [0 байт/сек]
Пред. тема | След. тема 

Автор
Сообщение

СообщениеДобавлено: 02 сен 2014, 15:42 

Название: Небеса реальны
Оригинальное название: Heaven Is for Real
Год выпуска: 2014
Жанр: Драма
Выпущено: США, Roth Films, Screen Gems, TriStar Pictures
Режиссер: Рэндалл Уоллас

В ролях: Грег Киннер, Келли Райлли, Томас Хейден Чёрч, Коннор Корам, Лэйн Стайлз, Марго Мартиндейл, Джейкоб Варгас, Таня Ромеро, Дансо Гордон, Роб Моран

О фильме: Главный герой меняет своё мировоззрение после того как его 4-летний сын выходит из комы и утверждает, что был в раю. В доказательство он приводит факты из жизни их семьи, которые просто не мог знать.

Качество: BDRip 1080p
Видео: MPEG-4 AVC, 9798 Кбит/с, 1920x802
Аудио: Русский (AC3, 2 ch, 128 Кбит/с), английский (DTS, 6 ch, 1509 Кбит/c)

Продолжительность: 01:39:29
Перевод: Любительский одноголосый (Andi)

Исходник: r00ty (Кинозал)





Общее
Уникальный идентификатор : 182046266608827038299869252700815026279 (0x88F4D5EAB4D1567281B69ECDFCACE867)
Полное имя : D:VideoNebesa realny.2014.BDRip.1080p.mkv
Формат : Matroska
Версия формата : Version 4 / Version 2
Размер файла : 8,11 Гбайт
Продолжительность : 1 ч. 39 м.
Общий поток : 11,7 Мбит/сек
Дата кодирования : UTC 2014-09-02 05:31:05
Программа кодирования : mkvmerge v6.9.1 ('Blue Panther') 64bit built on Apr 18 2014 18:23:38
Библиотека кодирования : libebml v1.3.0 + libmatroska v1.4.1

Видео
Идентификатор : 1
Формат : AVC
Формат/Информация : Advanced Video Codec
Профиль формата : High@L4.1
Параметр CABAC формата : Да
Параметр ReFrames формата : 4 кадра
Идентификатор кодека : V_MPEG4/ISO/AVC
Продолжительность : 1 ч. 39 м.
Битрейт : 9798 Кбит/сек
Ширина : 1920 пикселей
Высота : 802 пикселя
Соотношение сторон : 2,40:1
Режим частоты кадров : Постоянный
Частота кадров : 23,976 кадра/сек
Цветовое пространство : YUV
Субдискретизация насыщенности : 4:2:0
Битовая глубина : 8 бит
Тип развёртки : Прогрессивная
Бит/(Пиксели*Кадры) : 0.265
Размер потока : 6,81 Гбайт (84%)
Заголовок : BDRip -- STarankov
Библиотека кодирования : x264 core 142 r2431 ac76440
Настройки программы : cabac=1 / ref=4 / deblock=1:-1:-1 / analyse=0x3:0x113 / me=umh / subme=10 / psy=1 / psy_rd=1.00:0.15 / mixed_ref=1 / me_range=32 / chroma_me=1 / trellis=2 / 8x8dct=1 / cqm=0 / deadzone=21,11 / fast_pskip=0 / chroma_qp_offset=-3 / threads=6 / lookahead_threads=1 / sliced_threads=0 / nr=0 / decimate=1 / interlaced=0 / bluray_compat=0 / constrained_intra=0 / bframes=8 / b_pyramid=2 / b_adapt=2 / b_bias=0 / direct=1 / weightb=1 / open_gop=0 / weightp=2 / keyint=230 / keyint_min=23 / scenecut=40 / intra_refresh=0 / rc_lookahead=40 / rc=crf / mbtree=0 / crf=19.5 / qcomp=0.60 / qpmin=0 / qpmax=69 / qpstep=4 / vbv_maxrate=40000 / vbv_bufsize=50000 / crf_max=0.0 / nal_hrd=none / filler=0 / ip_ratio=1.40 / pb_ratio=1.30 / aq=1:1.00
Язык : English
Default : Да
Forced : Нет

Аудио #1
Идентификатор : 2
Формат : AC-3
Формат/Информация : Audio Coding 3
Расширение режима : CM (complete main)
Параметр Endianness формата : Big
Идентификатор кодека : A_AC3
Продолжительность : 1 ч. 39 м.
Вид битрейта : Постоянный
Битрейт : 128 Кбит/сек
Каналы : 2 канала
Расположение каналов : Front: L R
Частота : 48,0 КГц
Битовая глубина : 16 бит
Метод сжатия : С потерями
Размер потока : 91,1 Мбайт (1%)
Заголовок : VO (Andi, любительский одноголосый)
Язык : Russian
Default : Да
Forced : Нет

Аудио #2
Идентификатор : 3
Формат : DTS
Формат/Информация : Digital Theater Systems
Режим : 16
Параметр Endianness формата : Big
Идентификатор кодека : A_DTS
Продолжительность : 1 ч. 39 м.
Вид битрейта : Постоянный
Битрейт : 1509 Кбит/сек
Каналы : 6 каналов
Расположение каналов : Front: L C R, Side: L R, LFE
Частота : 48,0 КГц
Битовая глубина : 16 бит
Метод сжатия : С потерями
Размер потока : 1,05 Гбайт (13%)
Заголовок : Original
Язык : English
Default : Нет
Forced : Нет

---[Information] [30.08.2014 5:10:00] raw [info]: 1920x802p 1:1 @ 24000/1001 fps (cfr)
---[Information] [30.08.2014 5:10:00] x264 [info]: using SAR=1/1
---[Information] [30.08.2014 5:10:00] x264 [info]: using cpu capabilities: MMX2 SSE2Fast SSSE3 SSE4.2
---[Information] [30.08.2014 5:10:00] x264 [info]: profile High, level 4.1
---[Information] [30.08.2014 14:00:39] x264 [info]: frame I:1060 Avg QP:18.18 size:222901
---[Information] [30.08.2014 14:00:39] x264 [info]: frame P:27049 Avg QP:18.98 size:104303
---[Information] [30.08.2014 14:00:39] x264 [info]: frame B:115027 Avg QP:21.26 size: 38472
---[Information] [30.08.2014 14:00:39] x264 [info]: consecutive B-frames: 1.3% 1.2% 2.3% 18.6% 15.1% 34.5% 11.4% 14.5% 1.3%
---[Information] [30.08.2014 14:00:39] x264 [info]: mb I I16..4: 8.0% 79.6% 12.4%
---[Information] [30.08.2014 14:00:39] x264 [info]: mb P I16..4: 1.4% 24.2% 1.4% P16..4: 33.7% 24.3% 12.4% 0.0% 0.0% skip: 2.5%
---[Information] [30.08.2014 14:00:39] x264 [info]: mb B I16..4: 0.1% 2.2% 0.1% B16..8: 42.5% 12.0% 3.5% direct: 9.4% skip:30.2% L0:42.6% L1:44.6% BI:12.8%
---[Information] [30.08.2014 14:00:39] x264 [info]: 8x8 transform intra:88.8% inter:62.5%
---[Information] [30.08.2014 14:00:39] x264 [info]: coded y,uvDC,uvAC intra: 89.9% 91.1% 83.3% inter: 33.9% 41.7% 23.5%
---[Information] [30.08.2014 14:00:39] x264 [info]: i16 v,h,dc,p: 30% 15% 15% 40%
---[Information] [30.08.2014 14:00:39] x264 [info]: i8 v,h,dc,ddl,ddr,vr,hd,vl,hu: 12% 8% 15% 10% 11% 11% 11% 11% 12%
---[Information] [30.08.2014 14:00:39] x264 [info]: i4 v,h,dc,ddl,ddr,vr,hd,vl,hu: 32% 8% 5% 7% 10% 11% 10% 8% 9%
---[Information] [30.08.2014 14:00:39] x264 [info]: i8c dc,h,v,p: 61% 11% 13% 15%
---[Information] [30.08.2014 14:00:39] x264 [info]: Weighted P-Frames: Y:3.2% UV:2.0%
---[Information] [30.08.2014 14:00:39] x264 [info]: ref P L0: 48.6% 11.4% 29.5% 10.0% 0.5% 0.0%
---[Information] [30.08.2014 14:00:39] x264 [info]: ref B L0: 88.1% 9.8% 2.2%
---[Information] [30.08.2014 14:00:39] x264 [info]: ref B L1: 93.9% 6.1%
---[Information] [30.08.2014 14:00:39] x264 [info]: kb/s:10027.44
---[Information] [30.08.2014 14:00:39] encoded 143136 frames, 4.50 fps, 10027.44 kb/s
--[Information] [30.08.2014 14:00:41] Final statistics
---[Information] [30.08.2014 14:00:41] Constant Quality Mode: Quality 19 computed...
---[Information] [30.08.2014 14:00:41] Video Bitrate Obtained (approximate): 10029 kbit/s
--[Information] [30.08.2014 14:00:41] MediaInfo
---[Information] [30.08.2014 14:00:41] File: D:RipNebesa realny.2014.BDRipNebesa realny.2014.BDRip.1080p.mkv

загрузка...
Правила, инструкции, FAQ!!!
Торрент  Добавлен [02 сен 2014, 15:42] Скачать торрент
Скачать торрент
[ Размер 20.76 КБ / Просмотров 5 ]

Статус
Проверен 
 
Размер  8.11 ГБ
Приватный: Нет (DHT включён)
.torrent скачан  29
Как залить торрент? | Как скачать Torrent? | Как смотреть и слушать онлайн?  


     Отправить личное сообщение
   
Страница 1 из 1
Показать сообщения за:  Поле сортировки  
Начать новую тему Ответить на тему

   Похожие торренты   Автор   Ответы   Просмотры   Последнее сообщение 
В этой теме нет новых непрочитанных сообщений. Скачать торрент Проверен Небеса реальны / Heaven Is for Real (2014) BDRip 720p | L1

в форуме 720p | 1080p, Размер: 4.55 ГБ, Здоровье: 100%

Anonymous

0
11|0

42
22

16 июл 2014, 21:48

Anonymous Перейти к последнему сообщению

В этой теме нет новых непрочитанных сообщений. Скачать торрент Проверен Небеса реальны / Heaven Is for Real (2014) HDRip

в форуме Драмы, Мелодрамы, Размер: 1.37 ГБ, Здоровье: 100%

Anonymous

0
22|1

45
0

19 сен 2014, 07:30

Anonymous Перейти к последнему сообщению

В этой теме нет новых непрочитанных сообщений. Скачать торрент Проверен [iPad] Небеса реальны / Heaven Is for Real (Рэндалл Уоллес / Randall Wallace ) [2014, США, Драма, HDRip, SD (576p)] VO + Original

в форуме Фильмы для iPod, iPhone, iPad, Размер: 1.72 ГБ, Здоровье: 100%

Гость

0
10|3

24
0

11 май 2015, 01:42

Гость Перейти к последнему сообщению

В этой теме нет новых непрочитанных сообщений. Скачать торрент Проверен Grey heaven fall - Cерые небеса осени [2011, Black/Death Metal, HDRip]

в форуме Концерты (HD-Video), Размер: 365.48 МБ, Здоровье: 100%

Anonymous

0
1|0

7
0

23 окт 2016, 14:49

Anonymous Перейти к последнему сообщению

В этой теме нет новых непрочитанных сообщений. Скачать торрент Проверен Volbeat - Live From Beyond Hell/Above Heaven [2011, Heavy/Rock'n'roll/Groove metal, BDRip 1080p]

в форуме Концерты (HD-Video), Размер: 6.55 ГБ, Здоровье: 100%

Anonymous

0
9|3

9
1

23 окт 2016, 14:07

Anonymous Перейти к последнему сообщению



Сейчас этот форум просматривают: нет зарегистрированных пользователей и гости: 1


Вы не можете начинать темы
Вы не можете отвечать на сообщения
Вы не можете редактировать свои сообщения
Вы не можете удалять свои сообщения
Вы не можете добавлять вложения

Перейти:  

!ВНИМАНИЕ!
 Ресурс не предоставляет электронные версии произведений, а занимается лишь коллекционированием и каталогизацией ссылок, присылаемых и публикуемых на форуме нашими читателями. Если вы являетесь правообладателем какого-либо представленного материала и не желаете чтобы ссылка на него находилась в нашем каталоге, свяжитесь с нами и мы незамедлительно удалим её. Файлы для обмена на трекере предоставлены пользователями сайта, и администрация не несёт ответственности за их содержание. Просьба не заливать файлы, защищенные авторскими правами, а также файлы нелегального содержания!