На всех торрентах на трекере установлена скидка на скачивание в размере 100 процентов(а).
 Возможность скачивания торрента НЕ зависит от ограничений при низком ратио, низком аплоаде, требуемом ратио или требуемом аплоаде.


Начать новую тему Ответить на тему
Статистика раздачи
Размер: 4.36 ГБ | Добавлен: 25 авг 2014, 20:46 | Скачали: 0
Сидеров: 0  [0 байт/сек]    Личеров: 0  [0 байт/сек]
Пред. тема | След. тема 

Автор
Сообщение

СообщениеДобавлено: 25 авг 2014, 20:46 

Название: Соучастник
Оригинальное название: Collateral
Год выхода: 2004
Жанр: криминал, драма
Режиссер: Michael Mann

В ролях: Tom Cruise, Jamie Foxx, Mark Alan Ruffalo, Jada Koren Pinkett Smith, Peter Berg, Javier Ángel Encinas Bardem, Jason Statham

О фильме:
Водитель такси оказывается заложником наёмного убийцы.



Страна: США
Студия: DreamWorks, Paramount Pictures
Продолжительность: 01:59:56
Перевод: Профессиональный многоголосый закадровый (Tycoon Studio) + Дублированный (студия CPIG)


Кодек: x264 2pass
Качество: BDRip 720p
Видео: 1344x560, 4232 kbps, 23.976 fps
Звук:
AC-3, 320 kbps, stereo (rus, MVO, remastered)
AC-3, 320 kbps, stereo (eng, remastered)
AC-3, 320 kbps, stereo (rus, DUB, remastered) low source quality
Субтитры: отсутствуют


General
Unique ID : 202548586212024491412668371105366803170 (0x986170512094277CBC054293C35602E2)
Complete name : Collaterall.mkv
Format : Matroska
Format version : Version 4 / Version 2
File size : 4.36 GiB
Duration : 1h 59mn
Overall bit rate : 5 200 Kbps
Encoded date : UTC 2014-08-24 19:36:01
Writing application : mkvmerge v6.8.0 ('Theme for Great Cities') 32bit built on Mar 2 2014 21:27:07
Writing library : libebml v1.3.0 + libmatroska v1.4.1

Video
ID : 1
Format : AVC
Format/Info : Advanced Video Codec
Format profile : High
Format settings, CABAC : Yes
Format settings, ReFrames : 4 frames
Codec ID : V_MPEG4/ISO/AVC
Duration : 1h 59mn
Bit rate : 4 232 Kbps
Width : 1 344 pixels
Height : 560 pixels
Display aspect ratio : 2.40:1
Frame rate mode : Constant
Frame rate : 23.976 fps
Color space : YUV
Chroma subsampling : 4:2:0
Bit depth : 8 bits
Scan type : Progressive
Bits/(Pixel*Frame) : 0.235
Stream size : 3.47 GiB (80%)
Title : Collateral
Writing library : x264 core 130 r2273 b3065e6
Encoding settings : cabac=1 / ref=4 / deblock=1:-1:-2 / analyse=0x3:0 / me=tesa / subme=9 / psy=1 / psy_rd=1.00:0.00 / mixed_ref=0 / me_range=8 / chroma_me=0 / trellis=1 / 8x8dct=1 / cqm=0 / deadzone=21,11 / fast_pskip=0 / chroma_qp_offset=-2 / threads=4 / lookahead_threads=1 / sliced_threads=0 / nr=0 / decimate=0 / interlaced=0 / bluray_compat=0 / constrained_intra=0 / bframes=4 / b_pyramid=1 / b_adapt=1 / b_bias=0 / direct=2 / weightb=1 / open_gop=1 / weightp=2 / keyint=384 / keyint_min=16 / scenecut=5 / intra_refresh=0 / rc_lookahead=8 / rc=2pass / mbtree=1 / bitrate=4232 / ratetol=1.0 / qcomp=0.67 / qpmin=12 / qpmax=28 / qpstep=16 / cplxblur=20.0 / qblur=0.5 / ip_ratio=1.20 / aq=2:1.50
Language : English
Default : Yes
Forced : No

Audio #1
ID : 2
Format : AC-3
Format/Info : Audio Coding 3
Mode extension : CM (complete main)
Format settings, Endianness : Big
Codec ID : A_AC3
Duration : 1h 59mn
Bit rate mode : Constant
Bit rate : 320 Kbps
Channel(s) : 2 channels
Channel positions : Front: L R
Sampling rate : 48.0 KHz
Bit depth : 16 bits
Compression mode : Lossy
Stream size : 275 MiB (6%)
Title : Многоголосый (remastered)
Default : Yes
Forced : No

Audio #2
ID : 3
Format : AC-3
Format/Info : Audio Coding 3
Mode extension : CM (complete main)
Format settings, Endianness : Big
Codec ID : A_AC3
Duration : 1h 59mn
Bit rate mode : Constant
Bit rate : 320 Kbps
Channel(s) : 2 channels
Channel positions : Front: L R
Sampling rate : 48.0 KHz
Bit depth : 16 bits
Compression mode : Lossy
Stream size : 275 MiB (6%)
Title : Original (remastered)
Default : No
Forced : No

Audio #3
ID : 4
Format : AC-3
Format/Info : Audio Coding 3
Mode extension : CM (complete main)
Format settings, Endianness : Big
Codec ID : A_AC3
Duration : 1h 59mn
Bit rate mode : Constant
Bit rate : 320 Kbps
Channel(s) : 2 channels
Channel positions : Front: L R
Sampling rate : 48.0 KHz
Bit depth : 16 bits
Compression mode : Lossy
Stream size : 275 MiB (6%)
Title : Дублированный, CPIG (remastered) — low source quality!
Default : No
Forced : No

Релиз от: Da!ver
загрузка...
Правила, инструкции, FAQ!!!
Торрент  Добавлен [25 авг 2014, 20:46] Скачать торрент
Скачать торрент
[ Размер 22.38 КБ / Просмотров 19 ]

Статус
Проверен 
 
Размер  4.36 ГБ
Приватный: Нет (DHT включён)
.torrent скачан  0
Как залить торрент? | Как скачать Torrent? | Как смотреть и слушать онлайн?  


     Отправить личное сообщение
   
Страница 1 из 1
Показать сообщения за:  Поле сортировки  
Начать новую тему Ответить на тему

   Похожие торренты   Автор   Ответы   Просмотры   Последнее сообщение 
В этой теме нет новых непрочитанных сообщений. Скачать торрент Проверен Соучастник / Collateral (2004) BDRip 1080p

в форуме 720p | 1080p, Размер: 7.94 ГБ, Здоровье: 100%

Anonymous

0
33|5

57
247

25 авг 2014, 20:49

Anonymous Перейти к последнему сообщению

В этой теме нет новых непрочитанных сообщений. Скачать торрент Проверен [iPad] Соучастник / Collateral (Майкл Манн / Michael Mann) [2004, Триллер, драма, криминал, BDRip, 1280х536]

в форуме Фильмы для iPod, iPhone, iPad, Размер: 3.42 ГБ, Здоровье: 100%

Гость

0
9|3

55
1

12 май 2015, 00:13

Гость Перейти к последнему сообщению

В этой теме нет новых непрочитанных сообщений. Скачать торрент Проверен [iPad] Соучастник / Collateral (Майкл Манн/ Michael Mann) [2004, США, Триллер, драма, криминал, BDRip, 576p] Dub + Original + sub (rus, eng)

в форуме Фильмы для iPod, iPhone, iPad, Размер: 2.08 ГБ, Здоровье: 100%

Anonymous

0
5|1

117
1

11 май 2015, 01:41

Anonymous Перейти к последнему сообщению

В этой теме нет новых непрочитанных сообщений. Скачать торрент Соучастник / Collateral (Майкл Манн / Michael Mann) [2004 г., триллер, драма, криминал, HDRip] Dub + MVO + Original + Sub (Rus, Eng)

в форуме Триллеры, Размер: 2.18 ГБ, Здоровье: 100%

Anonymous

0
30|10

70
0

03 фев 2014, 12:30

Anonymous Перейти к последнему сообщению

В этой теме нет новых непрочитанных сообщений. Скачать торрент Проверен Возмещение ущерба / Collateral Damage (2002) BDRip 1080p

в форуме 720p | 1080p, Размер: 7.95 ГБ, Здоровье: 100%

Гость

0
20|11

60
14

19 апр 2015, 23:27

Гость Перейти к последнему сообщению



Сейчас этот форум просматривают: нет зарегистрированных пользователей и гости: 2


Вы не можете начинать темы
Вы не можете отвечать на сообщения
Вы не можете редактировать свои сообщения
Вы не можете удалять свои сообщения
Вы не можете добавлять вложения

Перейти:  

!ВНИМАНИЕ!
 Ресурс не предоставляет электронные версии произведений, а занимается лишь коллекционированием и каталогизацией ссылок, присылаемых и публикуемых на форуме нашими читателями. Если вы являетесь правообладателем какого-либо представленного материала и не желаете чтобы ссылка на него находилась в нашем каталоге, свяжитесь с нами и мы незамедлительно удалим её. Файлы для обмена на трекере предоставлены пользователями сайта, и администрация не несёт ответственности за их содержание. Просьба не заливать файлы, защищенные авторскими правами, а также файлы нелегального содержания!