На всех торрентах на трекере установлена скидка на скачивание в размере 100 процентов(а).
 Возможность скачивания торрента НЕ зависит от ограничений при низком ратио, низком аплоаде, требуемом ратио или требуемом аплоаде.


Начать новую тему Ответить на тему
Статистика раздачи
Размер: 7.75 ГБ | Добавлен: 25 авг 2014, 18:48 | Скачали: 162
Сидеров: 17  [0 байт/сек]    Личеров: 1  [0 байт/сек]
Пред. тема | След. тема 

Автор
Сообщение

СообщениеДобавлено: 25 авг 2014, 18:48 

    Русское название: Глухой пролёт / Всё из-за Пита Тонга
    Оригинальное название: It's All Gone Pete Tong
    Год выхода: 2004
    Жанр: Драма, комедия, музыка
    Режиссер: Майкл Даус
    Выпущено: Канада, Великобритания
    Продолжительность: 01:32:21
    Перевод: Профессиональный (многоголосый закадровый)

    В ролях: Пол Кэй, Беатриз Батарда, Кейт Магован, Майк Уилмот, Нил Мэскелл, Моника Майя, Пит Тонг, Рон Ллой Хью Эллистон, Дэн Антопольский, Тим Плестер


Сюжет фильма
    Главный герой Фрэнки Уайлд карабкается по карьерной лестнице ди-джея, живет сумасшедшей жизнью со всеми вытекающими последствиями... Вдруг он обнаруживает, что теряет слух! Однако он уже успел привыкнуть к славе и лести и решает бороться до конца, чтобы выяснить, слышит он музыку, которую сам играет или нет...


Файл
    Качество: BDRip 1080p (исходник Blu-ray Disc Remux)
    Видео: 1916x1080, 10936 Кбит/сек, 23,976 кадр/сек, AVC, x264, High@L4.1, 16:9, 0.220 Бит/[Пиксели*Кадры]
    Аудио 1: AC-3, 448 Кбит/сек, 6 канала(ов), 48,0 КГц - Многоголосый закадровый, R5 / Русский
    Аудио 3: AC-3, 640 Кбит/сек, 6 канала(ов), 48,0 КГц - Оригинал / Английский
    Субтитры: Русские | Полные, Английские | Полные
    Форсированные субтитры: Нет
    Чаптеры (Главы): Есть



Автор Рипа: Сообщество:



Format : Matroska
Format version : Version 2
File size : 7.75 GiB
Duration : 1h 32mn
Overall bit rate : 12.0 Mbps
Movie name : Глухой пролёт.(2004).BDRip.1080p.[envy]
Encoded date : UTC 2014-08-25 12:19:50
Writing application : mkvmerge v5.8.0 ('No Sleep / Pillow') built on Sep 2 2012 15:37:04
Writing library : libebml v1.2.3 + libmatroska v1.3.0

Video
ID : 1
Format : AVC
Format/Info : Advanced Video Codec
Format profile : High@L4.1
Format settings, CABAC : Yes
Format settings, ReFrames : 4 frames
Codec ID : V_MPEG4/ISO/AVC
Duration : 1h 32mn
Bit rate : 10.9 Mbps
Width : 1 916 pixels
Height : 1 080 pixels
Display aspect ratio : 16:9
Frame rate mode : Constant
Frame rate : 23.976 fps
Color space : YUV
Chroma subsampling : 4:2:0
Bit depth : 8 bits
Scan type : Progressive
Bits/(Pixel*Frame) : 0.220
Stream size : 6.89 GiB (89%)
Title : Глухой пролёт.(2004).BDRip.1080p.[envy]
Writing library : x264 core 142 r2453 ea0ca51
Encoding settings : cabac=1 / ref=4 / deblock=1:0:0 / analyse=0x3:0x113 / me=umh / subme=11 / psy=1 / psy_rd=1.00:0.00 / mixed_ref=1 / me_range=32 / chroma_me=1 / trellis=2 / 8x8dct=1 / cqm=0 / deadzone=21,11 / fast_pskip=0 / chroma_qp_offset=-2 / threads=12 / lookahead_threads=1 / sliced_threads=0 / nr=0 / decimate=1 / interlaced=0 / bluray_compat=0 / constrained_intra=0 / bframes=5 / b_pyramid=2 / b_adapt=2 / b_bias=0 / direct=3 / weightb=1 / open_gop=0 / weightp=2 / keyint=240 / keyint_min=23 / scenecut=40 / intra_refresh=0 / rc=2pass / mbtree=0 / bitrate=10936 / ratetol=2.0 / qcomp=0.60 / qpmin=0 / qpmax=69 / qpstep=4 / cplxblur=20.0 / qblur=0.5 / ip_ratio=1.40 / pb_ratio=1.30 / aq=2:0.90
Language : English
Default : Yes
Forced : No

Audio #1
ID : 2
Format : AC-3
Format/Info : Audio Coding 3
Mode extension : CM (complete main)
Format settings, Endianness : Big
Codec ID : A_AC3
Duration : 1h 32mn
Bit rate mode : Constant
Bit rate : 448 Kbps
Channel(s) : 6 channels
Channel positions : Front: L C R, Side: L R, LFE
Sampling rate : 48.0 KHz
Bit depth : 16 bits
Compression mode : Lossy
Stream size : 296 MiB (4%)
Title : MVO R5
Language : Russian
Default : Yes
Forced : No

Audio #2
ID : 3
Format : AC-3
Format/Info : Audio Coding 3
Mode extension : CM (complete main)
Format settings, Endianness : Big
Codec ID : A_AC3
Duration : 1h 32mn
Bit rate mode : Constant
Bit rate : 640 Kbps
Channel(s) : 6 channels
Channel positions : Front: L C R, Side: L R, LFE
Sampling rate : 48.0 KHz
Bit depth : 16 bits
Compression mode : Lossy
Stream size : 423 MiB (5%)
Title : Eng
Language : English
Default : No
Forced : No

Text #1
ID : 4
Format : UTF-8
Codec ID : S_TEXT/UTF8
Codec ID/Info : UTF-8 Plain Text
Title : full
Language : Russian
Default : No
Forced : No

Text #2
ID : 5
Format : UTF-8
Codec ID : S_TEXT/UTF8
Codec ID/Info : UTF-8 Plain Text
Title : full
Language : English
Default : No
Forced : No

Menu
00:00:00.000 : :Chapter 01
00:06:45.654 : :Chapter 02
00:10:46.395 : :Chapter 03
00:17:14.242 : :Chapter 04
00:24:16.996 : :Chapter 05
00:30:25.699 : :Chapter 06
00:37:40.632 : :Chapter 07
00:41:09.550 : :Chapter 08
00:47:28.971 : :Chapter 09
00:53:21.364 : :Chapter 10
00:59:19.139 : :Chapter 11
01:04:51.429 : :Chapter 12
01:09:10.897 : :Chapter 13
01:16:19.867 : :Chapter 14
01:23:04.854 : :Chapter 15
01:28:57.957 : :Chapter 16



#777
загрузка...
Правила, инструкции, FAQ!!!
Торрент  Добавлен [25 авг 2014, 18:48] Скачать торрент
Скачать торрент
[ Размер 39.26 КБ / Просмотров 17 ]

Статус
Проверен 
 
Размер  7.75 ГБ
Приватный: Нет (DHT включён)
.torrent скачан  162
Как залить торрент? | Как скачать Torrent? | Как смотреть и слушать онлайн?  


     Отправить личное сообщение
   
Страница 1 из 1
Показать сообщения за:  Поле сортировки  
Начать новую тему Ответить на тему

   Похожие торренты   Автор   Ответы   Просмотры   Последнее сообщение 
В этой теме нет новых непрочитанных сообщений. Скачать торрент Проверен Глухой пролёт / Всё из-за Пита Тонга / It's All Gone Pete Tong (2004) BDRip

в форуме Комедии, Размер: 1.7 ГБ, Здоровье: 100%

Anonymous

0
44|6

46
308

25 авг 2014, 18:54

Anonymous Перейти к последнему сообщению

В этой теме нет новых непрочитанных сообщений. Скачать торрент Глухой пролёт / Все из-за Пита Тонга / It's All Gone Pete Tong (Майкл Даус / Michael Dowse) [2004, Канада, Великобритания, комедия, драма, музыка, HDRip]

в форуме Комедии, Размер: 744.74 МБ, Здоровье: 0%

Anonymous

0
0|0

47
0

22 апр 2014, 11:39

Anonymous Перейти к последнему сообщению

В этой теме нет новых непрочитанных сообщений. Скачать торрент Проверен (House, Funky) VA - Pete Tong Classics (Box Set 3CD's) - 2014, MP3, 320 kbps

в форуме House, Размер: 548.38 МБ, Здоровье: 100%

Гость

0
19|7

72
1

08 фев 2015, 10:47

Гость Перейти к последнему сообщению

В этой теме нет новых непрочитанных сообщений. Скачать торрент Проверен (House) Pete Tong - Дискография 1996-2010, MP3 (tracks), VBR kbps / 128 kbps / 192 kbps / 320 kbps

в форуме House, Размер: 4.92 ГБ, Здоровье: 100%

Гость

0
8|2

66
0

08 фев 2015, 10:48

Гость Перейти к последнему сообщению

В этой теме нет новых непрочитанных сообщений. Скачать торрент Проверен Kopпopaция мoнcтpoв в 3Д / Моnstеrs, Inс 3D (Пит Доктер, Дэвид Си / Pete Docter,David Si) [2001, мультфильм, фэнтези, комедия, приключения, BDrip, 1080p] OverUnder / Вертикальная стереопара

в форуме 3D Мультфильмы, Размер: 11.47 ГБ, Здоровье: 0%

Anonymous

0
0|0

3
0

07 сен 2016, 18:08

Anonymous Перейти к последнему сообщению



Сейчас этот форум просматривают: нет зарегистрированных пользователей и гости: 1


Вы не можете начинать темы
Вы не можете отвечать на сообщения
Вы не можете редактировать свои сообщения
Вы не можете удалять свои сообщения
Вы не можете добавлять вложения

Перейти:  

!ВНИМАНИЕ!
 Ресурс не предоставляет электронные версии произведений, а занимается лишь коллекционированием и каталогизацией ссылок, присылаемых и публикуемых на форуме нашими читателями. Если вы являетесь правообладателем какого-либо представленного материала и не желаете чтобы ссылка на него находилась в нашем каталоге, свяжитесь с нами и мы незамедлительно удалим её. Файлы для обмена на трекере предоставлены пользователями сайта, и администрация не несёт ответственности за их содержание. Просьба не заливать файлы, защищенные авторскими правами, а также файлы нелегального содержания!