На всех торрентах на трекере установлена скидка на скачивание в размере 100 процентов(а).
 Возможность скачивания торрента НЕ зависит от ограничений при низком ратио, низком аплоаде, требуемом ратио или требуемом аплоаде.


Начать новую тему Ответить на тему
Статистика раздачи
Размер: 5.14 ГБ | Добавлен: 24 авг 2014, 10:26 | Скачали: 715
Сидеров: 94  [0 байт/сек]    Личеров: 14  [0 байт/сек]
Пред. тема | След. тема 

Автор
Сообщение

СообщениеДобавлено: 24 авг 2014, 10:26 

Название: Кенау
Оригинальное название: Kenau
Год выпуска: 2014
Жанр: История, приключения, боевик
Выпущено: Нидерланды, Венгрия, Бельгия, Fu Works, I'm FILM, Prime Time
Режиссер: Маартен Треёньет

В ролях: Моник Хендрикс, Лиза Смит, Барри Атсма, Аттила Арпа, Салли Хармсен, Питер Ван ден Бегин, Маттис ван де Санде Бакхуйзен, Йап Спийкерс, Саймон Нэйдер, Зольтан Папп

О фильме: Фильм основан на реальных исторических событиях, когда испанцы имели власть над частью Нидерландов, а также о роли женщине в борьбе за свободу своей страны.




Качество: BDRip (720p)
Видео: MPEG-4 AVC, 2888 Кбит/с, 1280x536, 23.976 кадр/с
Аудио: Русский (AC3, 6 ch, 640 Кбит/с), (DTS, 6 ch, 1509 Кбит/с), голландский (DTS, 6 ch, 1509 Кбит/с)
Размер: 5.14 ГБ
Продолжительность: 01:52:24
Перевод: Авторский одноголосый
Субтитры: Английские

Сохранены оригинальные чаптеры как на Blu-Ray.
Озвучивание: Авторское одноголосое закадровое (А.Дольский)

x264 [info]: frame I:1476 Avg QP:12.97 size: 99048
x264 [info]: frame P:32691 Avg QP:16.55 size: 30372
x264 [info]: frame B:127531 Avg QP:19.00 size: 10147
x264 [info]: consecutive B-frames: 2.0% 1.9% 7.4% 14.1% 12.8% 46.0% 7.0% 3.0% 2.8% 3.0%
x264 [info]: mb I I16..4: 10.3% 66.7% 23.0%
x264 [info]: mb P I16..4: 1.0% 11.1% 1.4% P16..4: 30.7% 34.2% 10.2% 3.7% 0.5% skip: 7.3%
x264 [info]: mb B I16..4: 0.1% 1.4% 0.1% B16..8: 36.4% 19.5% 3.0% direct: 4.2% skip:35.2% L0:47.7% L1:44.3% BI: 8.0%
x264 [info]: 8x8 transform intra:80.4% inter:54.3%
x264 [info]: direct mvs spatial:98.8% temporal:1.2%
x264 [info]: coded y,uvDC,uvAC intra: 85.8% 60.6% 34.0% inter: 23.8% 14.2% 4.0%
x264 [info]: i16 v,h,dc,p: 31% 9% 11% 49%
x264 [info]: i8 v,h,dc,ddl,ddr,vr,hd,vl,hu: 11% 7% 9% 9% 13% 13% 12% 12% 13%
x264 [info]: i4 v,h,dc,ddl,ddr,vr,hd,vl,hu: 13% 8% 8% 9% 14% 13% 12% 11% 13%
x264 [info]: i8c dc,h,v,p: 39% 31% 19% 11%
x264 [info]: Weighted P-Frames: Y:6.7% UV:2.5%
x264 [info]: ref P L0: 45.4% 8.5% 17.0% 8.1% 6.5% 5.0% 4.2% 2.5% 2.4% 0.4% 0.0%
x264 [info]: ref B L0: 69.0% 12.8% 7.2% 3.8% 3.1% 2.5% 1.3% 0.4%
x264 [info]: ref B L1: 91.2% 8.8%
x264 [info]: kb/s:2886.19


Общее
Уникальный идентификатор : 190565706957136077067406151688181493672 (0x8F5D9EC18234967BACBE633B1047AFA8)
Полное имя : D:ЗагрузкиKenau.2014.x264.BDRip.(720p).ExKinoRay.mkv
Формат : Matroska
Версия формата : Version 2
Размер файла : 5,14 Гбайт
Продолжительность : 1 ч. 52 м.
Общий поток : 6548 Кбит/сек
Название фильма : Kenau.2014.Rip by: ollan
Дата кодирования : UTC 2014-08-23 07:51:14
Программа кодирования : mkvmerge v5.6.0 ('Kenya Kane') built on May 27 2012 16:44:04
Библиотека кодирования : libebml v1.2.3 + libmatroska v1.3.0

Видео
Идентификатор : 1
Формат : AVC
Формат/Информация : Advanced Video Codec
Профиль формата : High@L4.1
Параметр CABAC формата : Да
Параметр ReFrames формата : 9 кадров
Идентификатор кодека : V_MPEG4/ISO/AVC
Продолжительность : 1 ч. 52 м.
Битрейт : 2888 Кбит/сек
Ширина : 1280 пикселей
Высота : 536 пикселей
Соотношение сторон : 2,40:1
Режим частоты кадров : Постоянный
Частота кадров : 23,976 кадра/сек
Цветовое пространство : YUV
Субдискретизация насыщенности : 4:2:0
Битовая глубина : 8 бит
Тип развёртки : Прогрессивная
Бит/(Пиксели*Кадры) : 0.176
Размер потока : 2,17 Гбайт (42%)
Библиотека кодирования : x264 core 125 r2200 999b753
Настройки программы : cabac=1 / ref=9 / deblock=1:-3:-3 / analyse=0x3:0x133 / me=umh / subme=11 / psy=1 / psy_rd=1.00:0.10 / mixed_ref=1 / me_range=32 / chroma_me=1 / trellis=2 / 8x8dct=1 / cqm=0 / deadzone=21,11 / fast_pskip=0 / chroma_qp_offset=-3 / threads=12 / lookahead_threads=2 / sliced_threads=0 / nr=0 / decimate=0 / interlaced=0 / bluray_compat=0 / constrained_intra=0 / bframes=9 / b_pyramid=2 / b_adapt=2 / b_bias=0 / direct=3 / weightb=1 / open_gop=0 / weightp=2 / keyint=240 / keyint_min=23 / scenecut=40 / intra_refresh=0 / rc_lookahead=40 / rc=2pass / mbtree=1 / bitrate=2888 / ratetol=1.0 / qcomp=0.60 / qpmin=0 / qpmax=69 / qpstep=4 / cplxblur=20.0 / qblur=0.5 / ip_ratio=1.40 / aq=1:1.00
Язык : Dutch
Default : Да
Forced : Нет

Аудио #1
Идентификатор : 2
Формат : AC-3
Формат/Информация : Audio Coding 3
Расширение режима : CM (complete main)
Параметр Endianness формата : Big
Идентификатор кодека : A_AC3
Продолжительность : 1 ч. 52 м.
Вид битрейта : Постоянный
Битрейт : 640 Кбит/сек
Каналы : 6 каналов
Расположение каналов : Front: L C R, Side: L R, LFE
Частота : 48,0 КГц
Битовая глубина : 16 бит
Метод сжатия : С потерями
Размер потока : 515 Мбайт (10%)
Заголовок : Авторский одноголосый (А.Дольский)
Язык : Russian
Default : Да
Forced : Нет

Аудио #2
Идентификатор : 3
Формат : DTS
Формат/Информация : Digital Theater Systems
Режим : 16
Параметр Endianness формата : Big
Идентификатор кодека : A_DTS
Продолжительность : 1 ч. 52 м.
Вид битрейта : Постоянный
Битрейт : 1509 Кбит/сек
Каналы : 6 каналов
Расположение каналов : Front: L C R, Side: L R, LFE
Частота : 48,0 КГц
Битовая глубина : 16 бит
Метод сжатия : С потерями
Размер потока : 1,18 Гбайт (23%)
Заголовок : Авторский одноголосый (А.Дольский)
Язык : Russian
Default : Нет
Forced : Нет

Аудио #3
Идентификатор : 4
Формат : DTS
Формат/Информация : Digital Theater Systems
Режим : 16
Параметр Endianness формата : Big
Идентификатор кодека : A_DTS
Продолжительность : 1 ч. 52 м.
Вид битрейта : Постоянный
Битрейт : 1509 Кбит/сек
Каналы : 6 каналов
Расположение каналов : Front: L C R, Side: L R, LFE
Частота : 48,0 КГц
Битовая глубина : 16 бит
Метод сжатия : С потерями
Размер потока : 1,18 Гбайт (23%)
Язык : Dutch
Default : Нет
Forced : Нет

Текст
Идентификатор : 5
Формат : UTF-8
Идентификатор кодека : S_TEXT/UTF8
Идентификатор кодека/Информация : UTF-8 Plain Text
Язык : English
Default : Нет
Forced : Нет

Меню
00:00:00.000 : nl:Chapter 01
00:07:41.169 : nl:Chapter 02
00:16:27.945 : nl:Chapter 03
00:27:17.052 : nl:Chapter 04
00:34:53.257 : nl:Chapter 05
00:41:32.531 : nl:Chapter 06
00:51:10.942 : nl:Chapter 07
00:59:51.254 : nl:Chapter 08
01:06:57.930 : nl:Chapter 09
01:15:40.410 : nl:Chapter 10
01:28:10.118 : nl:Chapter 11
01:36:42.046 : nl:Chapter 12
01:46:42.687 : nl:Chapter 13







Релиз от: Rip by:
загрузка...
Правила, инструкции, FAQ!!!
Торрент  Добавлен [24 авг 2014, 10:26] Скачать торрент
Скачать торрент
[ Размер 13.48 КБ / Просмотров 8 ]

Статус
Проверен 
 
Размер  5.14 ГБ
Приватный: Нет (DHT включён)
.torrent скачан  715
Как залить торрент? | Как скачать Torrent? | Как смотреть и слушать онлайн?  


     Отправить личное сообщение
   
Страница 1 из 1
Показать сообщения за:  Поле сортировки  
Начать новую тему Ответить на тему

   Похожие торренты   Автор   Ответы   Просмотры   Последнее сообщение 
В этой теме нет новых непрочитанных сообщений. Скачать торрент Проверен Кенау / Kenau (2014) BDRip | А

в форуме Приключения, Размер: 1.46 ГБ, Здоровье: 100%

Anonymous

0
781|56

170
31

24 авг 2014, 09:57

Anonymous Перейти к последнему сообщению

В этой теме нет новых непрочитанных сообщений. Скачать торрент Проверен Кенау / Kenau (2014) BDRip [576p] iPad

в форуме Фильмы для iPod, iPhone, iPad, Размер: 1.93 ГБ, Здоровье: 100%

Гость

0
1|1

358
0

13 сен 2015, 01:35

Гость Перейти к последнему сообщению

В этой теме нет новых непрочитанных сообщений. Скачать торрент Проверен Ты не ты / You're Not You (2014) BDRip 720p | P

в форуме 720p | 1080p, Размер: 4.51 ГБ, Здоровье: 100%

Гость

0
132|81

155
256

17 апр 2015, 16:29

Гость Перейти к последнему сообщению

В этой теме нет новых непрочитанных сообщений. Скачать торрент Проверен ПиКей / PK (2014) BDRip 720p | L 2

в форуме Индийское кино, Размер: 2.9 ГБ, Здоровье: 100%

Anonymous

0
1079|525

256
1649

11 янв 2015, 16:54

Anonymous Перейти к последнему сообщению

В этой теме нет новых непрочитанных сообщений. Скачать торрент Проверен 71 / '71 (2014) BDRip 720p | Матвеев

в форуме 720p | 1080p, Размер: 9.35 ГБ, Здоровье: 100%

Гость

0
17|2

117
9

07 дек 2015, 18:40

Гость Перейти к последнему сообщению



Сейчас этот форум просматривают: нет зарегистрированных пользователей и гости: 3


Вы не можете начинать темы
Вы не можете отвечать на сообщения
Вы не можете редактировать свои сообщения
Вы не можете удалять свои сообщения
Вы не можете добавлять вложения

Перейти:  

!ВНИМАНИЕ!
 Ресурс не предоставляет электронные версии произведений, а занимается лишь коллекционированием и каталогизацией ссылок, присылаемых и публикуемых на форуме нашими читателями. Если вы являетесь правообладателем какого-либо представленного материала и не желаете чтобы ссылка на него находилась в нашем каталоге, свяжитесь с нами и мы незамедлительно удалим её. Файлы для обмена на трекере предоставлены пользователями сайта, и администрация не несёт ответственности за их содержание. Просьба не заливать файлы, защищенные авторскими правами, а также файлы нелегального содержания!