На всех торрентах на трекере установлена скидка на скачивание в размере 100 процентов(а).
 Возможность скачивания торрента НЕ зависит от ограничений при низком ратио, низком аплоаде, требуемом ратио или требуемом аплоаде.


Начать новую тему Ответить на тему
Статистика раздачи
Размер: 7.51 ГБ | Добавлен: 05 мар 2013, 20:58 | Скачали: 0
Сидеров: 0  [0 байт/сек]    Личеров: 0  [0 байт/сек]
Пред. тема | След. тема 

Автор
Сообщение

СообщениеДобавлено: 05 мар 2013, 20:58 

В хлам / Smashed



Название: В хлам
Оригинальное название: Smashed
Год выпуска: 2012
Жанр: Драма, комедия
Выпущено: США, Super Crispy Entertainment
Режиссер: Джеймс Понсольдт

В фильме снимались: Мэри Элизабет Уинстэд, Аарон Пол, Октавия Спенсер, Ник Офферман, Меган Маллалли, Мэри Кэй Плэйс, Кайл Галлнер, Бри Тёрнер, Маккензи Дэвис, Патти Эллисон

Вкратце: Фильм - история супругов, любящих весёлую жизнь, музыку и особенно алкоголь. У жены начинаются проблемы на работе и она решила воспользоваться помощью медицинского центра, постепенно она избавляется от алкогольной зависимости и начинает вести здоровый образ жизни, однако муж её не поддерживает и не собирается отказываться от пагубной привычки. Что ждёт супругов?..



Формат: mkv
Качество: BDRip (1080p)
Видео:MPEG-4 AVC, 11.1 Мбит/с, 1920x1040
Аудио: Русский (AC3, 6 ch, 384 Кбит/с), английский (DTS, 6 ch, 1510 Кбит/с)

Продолжительность: 01:21:06
Перевод: Профессиональный многоголосый [лицензия]
Субтитры: Английские, украинские



General
Unique ID : 190118582312418723852038665857735241254 (0x8F0781CF13B3BB93AFDAFF6683EEAE26)
Complete name : V.hlam.2012.P.BDRip.1080p.IRONCLUB.mkv
Format : Matroska
Format version : Version 2
File size : 7.51 GiB
Duration : 1h 21mn
Overall bit rate : 13.2 Mbps
Movie name : IRONCLUB
Encoded date : UTC 2013-03-05 15:13:22
Writing application : mkvmerge v5.2.0 ('I can't explain') built on Dec 18 2011 18:12:03
Writing library : libebml v1.2.3 + libmatroska v1.3.0

Video
ID : 1
Format : AVC
Format/Info : Advanced Video Codec
Format profile : High@L4.1
Format settings, CABAC : Yes
Format settings, ReFrames : 4 frames
Codec ID : V_MPEG4/ISO/AVC
Duration : 1h 21mn
Bit rate : 11.1 Mbps
Width : 1 920 pixels
Height : 1 040 pixels
Display aspect ratio : 1.85:1
Frame rate : 23.976 fps
Color space : YUV
Chroma subsampling : 4:2:0
Bit depth : 8 bits
Scan type : Progressive
Bits/(Pixel*Frame) : 0.232
Stream size : 6.28 GiB (84%)
Title : Smashed.2012.1080p.BluRay.DTS.x264-DSS
Writing library : x264 core 129 r2245 bc13772
Encoding settings : cabac=1 / ref=4 / deblock=1:-3:-3 / analyse=0x3:0x133 / me=tesa / subme=10 / psy=1 / psy_rd=0.95:0.00 / mixed_ref=1 / me_range=16 / chroma_me=1 / trellis=2 / 8x8dct=1 / cqm=0 / deadzone=21,11 / fast_pskip=0 / chroma_qp_offset=-2 / threads=12 / lookahead_threads=2 / sliced_threads=0 / nr=0 / decimate=1 / interlaced=0 / bluray_compat=0 / constrained_intra=0 / bframes=13 / b_pyramid=2 / b_adapt=2 / b_bias=0 / direct=3 / weightb=1 / open_gop=0 / weightp=2 / keyint=250 / keyint_min=23 / scenecut=40 / intra_refresh=0 / rc_lookahead=60 / rc=crf / mbtree=1 / crf=14.0 / qcomp=0.60 / qpmin=0 / qpmax=69 / qpstep=4 / ip_ratio=1.40 / aq=1:0.80
Language : English
Default : Yes
Forced : Yes

Audio #1
ID : 2
Format : AC-3
Format/Info : Audio Coding 3
Mode extension : CM (complete main)
Format settings, Endianness : Big
Codec ID : A_AC3
Duration : 1h 21mn
Bit rate mode : Constant
Bit rate : 384 Kbps
Channel(s) : 6 channels
Channel positions : Front: L C R, Side: L R, LFE
Sampling rate : 48.0 KHz
Bit depth : 16 bits
Compression mode : Lossy
Stream size : 223 MiB (3%)
Title : DD 5.1 @ 384 kbps - MVO, R5
Language : Russian
Default : Yes
Forced : Yes

Audio #2
ID : 3
Format : DTS
Format/Info : Digital Theater Systems
Codec ID : A_DTS
Duration : 1h 21mn
Bit rate mode : Constant
Bit rate : 1 510 Kbps
Channel(s) : 6 channels
Channel positions : Front: L C R, Side: L R, LFE
Sampling rate : 48.0 KHz
Bit depth : 24 bits
Compression mode : Lossy
Stream size : 876 MiB (11%)
Title : DTS 5.1 @ 1536 kbps
Language : English
Default : No
Forced : No

Text #1
ID : 4
Format : UTF-8
Codec ID : S_TEXT/UTF8
Codec ID/Info : UTF-8 Plain Text
Title : R5
Language : Ukrainian
Default : No
Forced : No

Text #2
ID : 5
Format : UTF-8
Codec ID : S_TEXT/UTF8
Codec ID/Info : UTF-8 Plain Text
Language : English
Default : No
Forced : No

Menu
00:00:00.000 : en:00:00:00.000
00:07:08.928 : en:00:07:08.928
00:14:22.487 : en:00:14:22.487
00:19:19.867 : en:00:19:19.867
00:23:37.207 : en:00:23:37.207
00:27:38.490 : en:00:27:38.490
00:32:14.141 : en:00:32:14.141
00:36:15.465 : en:00:36:15.465
00:40:01.107 : en:00:40:01.107
00:43:55.007 : en:00:43:55.007
00:48:45.506 : en:00:48:45.506
00:50:50.714 : en:00:50:50.714
00:54:59.421 : en:00:54:59.421
00:59:33.653 : en:00:59:33.653
01:05:20.583 : en:01:05:20.583
01:10:56.085 : en:01:10:56.085



загрузка...
Правила, инструкции, FAQ!!!
Торрент  Добавлен [05 мар 2013, 20:58] Скачать торрент
Скачать торрент
[ Размер 37.91 КБ / Просмотров 5 ]

Статус  
 
Размер  7.51 ГБ
Приватный: Нет (DHT включён)
.torrent скачан  0
Как залить торрент? | Как скачать Torrent? | Как смотреть и слушать онлайн?  


     Отправить личное сообщение
   
Страница 1 из 1
Показать сообщения за:  Поле сортировки  
Начать новую тему Ответить на тему

   Похожие торренты   Автор   Ответы   Просмотры   Последнее сообщение 
В этой теме нет новых непрочитанных сообщений. Скачать торрент Как знать... / How Do You Know? (Джеймс Л. Брукс / James L. Brooks) [2010, США, Драма, мелодрама, комедия, BDRip] Dub

в форуме Драмы, Мелодрамы, Размер: 1.46 ГБ, Здоровье: 100%

Anonymous

0
14|5

50
0

01 апр 2014, 09:37

Anonymous Перейти к последнему сообщению

В этой теме нет новых непрочитанных сообщений. Скачать торрент Игра по чужим правилам / Путь к славе / Glory Road (Джеймс Гартнер / James Gartner) [2006, драма, комедия, спорт, BDRip-AVC]

в форуме Драмы, Мелодрамы, Размер: 2.27 ГБ, Здоровье: 0%

Anonymous

0
0|0

30
0

02 апр 2014, 08:23

Anonymous Перейти к последнему сообщению

В этой теме нет новых непрочитанных сообщений. Скачать торрент Игра по чужим правилам / Путь к славе / Glory Road (Джеймс Гартнер / James Gartner) [2006, драма, комедия, спорт, BDRip-AVC]

в форуме Драмы, Мелодрамы, Размер: 3.71 ГБ, Здоровье: 0%

Anonymous

0
0|0

27
0

01 апр 2014, 09:37

Anonymous Перейти к последнему сообщению

В этой теме нет новых непрочитанных сообщений. Скачать торрент Проверен Афоня (Георгий Данелия) [1975, СССР, драма, мелодрама, комедия, BDRip 1080p]

в форуме Наше кино (HD Video), Размер: 10.12 ГБ, Здоровье: 100%

Anonymous

0
56|19

51
1

12 апр 2015, 11:05

Anonymous Перейти к последнему сообщению

В этой теме нет новых непрочитанных сообщений. Скачать торрент Проверен Джентльмены удачи (Александр Серый) [1971, СССР, комедия, драма, BDRip 1080p]

в форуме Наше кино (HD Video), Размер: 6.44 ГБ, Здоровье: 100%

Anonymous

0
56|19

66
0

12 апр 2015, 10:56

Anonymous Перейти к последнему сообщению



Сейчас этот форум просматривают: нет зарегистрированных пользователей и гости: 2


Вы не можете начинать темы
Вы не можете отвечать на сообщения
Вы не можете редактировать свои сообщения
Вы не можете удалять свои сообщения
Вы не можете добавлять вложения

Перейти:  

!ВНИМАНИЕ!
 Ресурс не предоставляет электронные версии произведений, а занимается лишь коллекционированием и каталогизацией ссылок, присылаемых и публикуемых на форуме нашими читателями. Если вы являетесь правообладателем какого-либо представленного материала и не желаете чтобы ссылка на него находилась в нашем каталоге, свяжитесь с нами и мы незамедлительно удалим её. Файлы для обмена на трекере предоставлены пользователями сайта, и администрация не несёт ответственности за их содержание. Просьба не заливать файлы, защищенные авторскими правами, а также файлы нелегального содержания!