На всех торрентах на трекере установлена скидка на скачивание в размере 100 процентов(а).
 Возможность скачивания торрента НЕ зависит от ограничений при низком ратио, низком аплоаде, требуемом ратио или требуемом аплоаде.


Начать новую тему Ответить на тему
Статистика раздачи
Размер: 3.41 ГБ | Добавлен: 05 мар 2013, 20:57 | Скачали: 0
Сидеров: 0  [0 байт/сек]    Личеров: 0  [0 байт/сек]
Пред. тема | След. тема 

Автор
Сообщение

СообщениеДобавлено: 05 мар 2013, 20:57 

В хлам / Smashed



Название: В хлам
Оригинальное название: Smashed
Год выпуска: 2012
Жанр: Драма, комедия
Выпущено: США, Super Crispy Entertainment
Режиссер: Джеймс Понсольдт

В фильме снимались: Мэри Элизабет Уинстэд, Аарон Пол, Октавия Спенсер, Ник Офферман, Меган Маллалли, Мэри Кэй Плэйс, Кайл Галлнер, Бри Тёрнер, Маккензи Дэвис, Патти Эллисон

Вкратце: Фильм - история супругов, любящих весёлую жизнь, музыку и особенно алкоголь. У жены начинаются проблемы на работе и она решила воспользоваться помощью медицинского центра, постепенно она избавляется от алкогольной зависимости и начинает вести здоровый образ жизни, однако муж её не поддерживает и не собирается отказываться от пагубной привычки. Что ждёт супругов?..



Формат: mkv
Качество: BDRip (720p)
Видео:MPEG-4 AVC, 5000 Кбит/с, 1280x692
Аудио: Русский (AC3, 6 ch, 384 Кбит/с), английский (AC3, 6 ch, 640 Кбит/с)

Продолжительность: 01:21:06
Перевод: Профессиональный многоголосый [лицензия]
Субтитры: Английские, украинские



General
Unique ID : 212726889310602878517825875105614798895 (0xA009B567766C9AA791C8591CCAB6202F)
Complete name : V.hlam.2012.P.BDRip.720p.IRONCLUB.mkv
Format : Matroska
Format version : Version 2
File size : 3.41 GiB
Duration : 1h 21mn
Overall bit rate : 6 025 Kbps
Movie name : IRONCLUB
Encoded date : UTC 2013-03-05 13:22:19
Writing application : mkvmerge v5.2.0 ('I can't explain') built on Dec 18 2011 18:12:03
Writing library : libebml v1.2.3 + libmatroska v1.3.0

Video
ID : 1
Format : AVC
Format/Info : Advanced Video Codec
Format profile : High@L4.1
Format settings, CABAC : Yes
Format settings, ReFrames : 9 frames
Codec ID : V_MPEG4/ISO/AVC
Duration : 1h 21mn
Bit rate : 5 000 Kbps
Width : 1 280 pixels
Height : 692 pixels
Display aspect ratio : 1.85:1
Frame rate : 23.976 fps
Color space : YUV
Chroma subsampling : 4:2:0
Bit depth : 8 bits
Scan type : Progressive
Bits/(Pixel*Frame) : 0.235
Stream size : 2.77 GiB (81%)
Title : Smashed 2012 720p BluRay DD5.1 x264-SFT
Writing library : x264 core 129 r2245 bc13772
Encoding settings : cabac=1 / ref=9 / deblock=1:-3:-3 / analyse=0x3:0x133 / me=umh / subme=10 / psy=1 / psy_rd=1.00:0.00 / mixed_ref=1 / me_range=24 / chroma_me=1 / trellis=2 / 8x8dct=1 / cqm=0 / deadzone=21,11 / fast_pskip=1 / chroma_qp_offset=-2 / threads=12 / lookahead_threads=2 / sliced_threads=0 / nr=0 / decimate=1 / interlaced=0 / bluray_compat=0 / constrained_intra=0 / bframes=8 / b_pyramid=2 / b_adapt=2 / b_bias=0 / direct=3 / weightb=1 / open_gop=0 / weightp=2 / keyint=250 / keyint_min=23 / scenecut=40 / intra_refresh=0 / rc_lookahead=60 / rc=2pass / mbtree=1 / bitrate=5000 / ratetol=1.0 / qcomp=0.60 / qpmin=0 / qpmax=69 / qpstep=4 / cplxblur=20.0 / qblur=0.5 / ip_ratio=1.40 / aq=1:0.80
Language : English
Default : Yes
Forced : Yes

Audio #1
ID : 2
Format : AC-3
Format/Info : Audio Coding 3
Mode extension : CM (complete main)
Format settings, Endianness : Big
Codec ID : A_AC3
Duration : 1h 21mn
Bit rate mode : Constant
Bit rate : 384 Kbps
Channel(s) : 6 channels
Channel positions : Front: L C R, Side: L R, LFE
Sampling rate : 48.0 KHz
Bit depth : 16 bits
Compression mode : Lossy
Stream size : 223 MiB (6%)
Title : DD 5.1 @ 384 kbps - MVO, R5
Language : Russian
Default : Yes
Forced : Yes

Audio #2
ID : 3
Format : AC-3
Format/Info : Audio Coding 3
Mode extension : CM (complete main)
Format settings, Endianness : Big
Codec ID : A_AC3
Duration : 1h 21mn
Bit rate mode : Constant
Bit rate : 640 Kbps
Channel(s) : 6 channels
Channel positions : Front: L C R, Side: L R, LFE
Sampling rate : 48.0 KHz
Bit depth : 16 bits
Compression mode : Lossy
Stream size : 371 MiB (11%)
Title : DD 5.1 @ 640 kbps
Language : English
Default : No
Forced : No

Text #1
ID : 4
Format : UTF-8
Codec ID : S_TEXT/UTF8
Codec ID/Info : UTF-8 Plain Text
Title : R5
Language : Ukrainian
Default : No
Forced : No

Text #2
ID : 5
Format : UTF-8
Codec ID : S_TEXT/UTF8
Codec ID/Info : UTF-8 Plain Text
Language : English
Default : No
Forced : No

Menu
00:00:00.000 : :1
00:07:08.928 : :2
00:14:22.487 : :3
00:19:19.867 : :4
00:23:37.207 : :5
00:27:38.490 : :6
00:32:14.141 : :7
00:36:15.465 : :8
00:40:01.107 : :9
00:43:55.007 : :10
00:48:45.506 : :11
00:50:50.714 : :12
00:54:59.421 : :13
00:59:33.653 : :14
01:05:20.583 : :15
01:10:56.085 : :16



загрузка...
Правила, инструкции, FAQ!!!
Торрент  Добавлен [05 мар 2013, 20:57] Скачать торрент
Скачать торрент
[ Размер 17.44 КБ / Просмотров 9 ]

Статус  
 
Размер  3.41 ГБ
Приватный: Нет (DHT включён)
.torrent скачан  0
Как залить торрент? | Как скачать Torrent? | Как смотреть и слушать онлайн?  


     Отправить личное сообщение
   
Страница 1 из 1
Показать сообщения за:  Поле сортировки  
Начать новую тему Ответить на тему

   Похожие торренты   Автор   Ответы   Просмотры   Последнее сообщение 
В этой теме нет новых непрочитанных сообщений. Скачать торрент Проверен Рассказы (Михаил Сегал) [2012, Россия, драма, комедия, BDRip 720p] Original Rus + Sub Rus, Eng, Fre, Ger

в форуме Наше кино (HD Video), Размер: 5.21 ГБ, Здоровье: 100%

Anonymous

0
34|11

206
0

12 апр 2015, 15:07

Anonymous Перейти к последнему сообщению

В этой теме нет новых непрочитанных сообщений. Скачать торрент Как знать... / How Do You Know? (Джеймс Л. Брукс / James L. Brooks) [2010, США, Драма, мелодрама, комедия, BDRip] Dub

в форуме Драмы, Мелодрамы, Размер: 1.46 ГБ, Здоровье: 100%

Anonymous

0
14|5

51
0

01 апр 2014, 09:37

Anonymous Перейти к последнему сообщению

В этой теме нет новых непрочитанных сообщений. Скачать торрент Игра по чужим правилам / Путь к славе / Glory Road (Джеймс Гартнер / James Gartner) [2006, драма, комедия, спорт, BDRip-AVC]

в форуме Драмы, Мелодрамы, Размер: 2.27 ГБ, Здоровье: 0%

Anonymous

0
0|0

30
0

02 апр 2014, 08:23

Anonymous Перейти к последнему сообщению

В этой теме нет новых непрочитанных сообщений. Скачать торрент Игра по чужим правилам / Путь к славе / Glory Road (Джеймс Гартнер / James Gartner) [2006, драма, комедия, спорт, BDRip-AVC]

в форуме Драмы, Мелодрамы, Размер: 3.71 ГБ, Здоровье: 0%

Anonymous

0
0|0

27
0

01 апр 2014, 09:37

Anonymous Перейти к последнему сообщению

В этой теме нет новых непрочитанных сообщений. Скачать торрент Проверен Мы купили зоопарк / We Bought a Zoo (Кэмерон Кроу / Cameron Crowe) [2011, США, драма, комедия, семейный, BDRip] Dub (Лицензия)

в форуме Детское, Семейное кино, Размер: 1.46 ГБ, Здоровье: 100%

Anonymous

0
56|19

184
0

25 янв 2015, 10:37

Anonymous Перейти к последнему сообщению



Сейчас этот форум просматривают: нет зарегистрированных пользователей и гости: 3


Вы не можете начинать темы
Вы не можете отвечать на сообщения
Вы не можете редактировать свои сообщения
Вы не можете удалять свои сообщения
Вы не можете добавлять вложения

Перейти:  

!ВНИМАНИЕ!
 Ресурс не предоставляет электронные версии произведений, а занимается лишь коллекционированием и каталогизацией ссылок, присылаемых и публикуемых на форуме нашими читателями. Если вы являетесь правообладателем какого-либо представленного материала и не желаете чтобы ссылка на него находилась в нашем каталоге, свяжитесь с нами и мы незамедлительно удалим её. Файлы для обмена на трекере предоставлены пользователями сайта, и администрация не несёт ответственности за их содержание. Просьба не заливать файлы, защищенные авторскими правами, а также файлы нелегального содержания!