На всех торрентах на трекере установлена скидка на скачивание в размере 100 процентов(а).
 Возможность скачивания торрента НЕ зависит от ограничений при низком ратио, низком аплоаде, требуемом ратио или требуемом аплоаде.


Начать новую тему Ответить на тему
Статистика раздачи
Размер: 4.36 ГБ | Добавлен: 03 мар 2013, 22:06 | Скачали: 0
Сидеров: 0  [0 байт/сек]    Личеров: 0  [0 байт/сек]
Пред. тема | След. тема 

Автор
Сообщение

СообщениеДобавлено: 03 мар 2013, 22:06 

Американская девственница / American Virgin


Название: Американская девственница
Оригинальное название: American Virgin
Год выхода: 2009
Жанр: Комедия
Режиссер: Клер Килнер

В фильме снимались: Роб Шнайдер, Дженна Деван, Чейз Райан Джеффри, Брианна Дэвис, Элан Мосс-Бакрак, Эшли Шнайдер, Бо Бёрнэм, Жаклин Эвола, Сара Хабель, Дэвид Фрэнк Флетчер Джейар

Вкратце: Некому вульгарному режиссёру удалось заснять на видео непристойное поведение напившейся на вечеринке новоиспечённой ученицы колледжа. Теперь она и её единомышленники, не признающие секса до брака, должны сделать всё, чтобы эти записи никто не увидел...



Страна: США, Domain Entertainment Michigan, Tax Credit Finance
Продолжительность: 01:24:00
Перевод: Профессиональный двухголосый
Дата релиза: 03.03.2013

Формат: mkv
Кодек: H.264
Качество: BDRip (720p)
Видео: MPEG-4 AVC, 5419 Кбит/с, 1280x720
Звук: Русский (AC3, 6 ch, 448 Кбит/с), английский (DTS, 6 ch, 1510 Кбит/с)
Общее
Уникальный идентификатор : 214233215263083492136043975468367641210 (0xA12BD101EEFA0A7BA83E1600AE827A7A)
Полное имя : D:4Amerikanskaja.devstvennica.2009.x264.BDRip.(720p).rondik.mkv
Формат : Matroska
Версия формата : Version 2
Размер файла : 4,36 Гбайт
Продолжительность : 1 ч. 24 м.
Общий поток : 7360 Кбит/сек
Название фильма : Amerikanskaja.devstvennica.2009.x264.BDRip.(720p).rondik
Дата кодирования : UTC 2013-03-03 17:58:25
Программа кодирования : mkvmerge v4.0.0 ('The Stars were mine') сборка от Jun 6 2010 16:18:42
Библиотека кодирования : libebml v1.0.0 + libmatroska v1.0.0

Видео
Идентификатор : 1
Формат : AVC
Формат/Информация : Advanced Video Codec
Профиль формата : High@L4.1
Параметр CABAC формата : Да
Параметр ReFrames формата : 10 кадров
Идентификатор кодека : V_MPEG4/ISO/AVC
Продолжительность : 1 ч. 24 м.
Битрейт : 5419 Кбит/сек
Ширина : 1280 пикселей
Высота : 720 пикселей
Соотношение сторон : 16:9
Частота кадров : 24,000 кадра/сек
Цветовое пространство : YUV
Субдискретизация насыщенности : 4:2:0
Битовая глубина : 8 бит
Тип развёртки : Прогрессивная
Бит/(Пиксели*Кадры) : 0.245
Размер потока : 3,11 Гбайт (71%)
Заголовок : Rip by rondik
Библиотека кодирования : x264 core 92 r1510 33d382a
Настройки программы : cabac=1 / ref=10 / deblock=1:-3:-3 / analyse=0x3:0x133 / me=umh / subme=10 / psy=1 / psy_rd=1.00:0.00 / mixed_ref=1 / me_range=48 / chroma_me=1 / trellis=2 / 8x8dct=1 / cqm=0 / deadzone=21,11 / fast_pskip=0 / chroma_qp_offset=-2 / threads=3 / sliced_threads=0 / nr=0 / decimate=0 / interlaced=0 / constrained_intra=0 / bframes=8 / b_pyramid=2 / b_adapt=2 / b_bias=0 / direct=3 / wpredb=1 / wpredp=2 / keyint=240 / keyint_min=23 / scenecut=40 / intra_refresh=0 / rc=2pass / mbtree=0 / bitrate=5419 / ratetol=1.0 / qcomp=0.60 / qpmin=10 / qpmax=51 / qpstep=4 / cplxblur=20.0 / qblur=0.5 / ip_ratio=1.40 / pb_ratio=1.30 / aq=1:1.00
Язык : Russian

Аудио #1
Идентификатор : 2
Формат : AC-3
Формат/Информация : Audio Coding 3
Расширение режима : CM (complete main)
Идентификатор кодека : A_AC3
Продолжительность : 1 ч. 24 м.
Вид битрейта : Постоянный
Битрейт : 448 Кбит/сек
Каналы : 6 каналов
Расположение каналов : Front: L C R, Side: L R, LFE
Частота : 48,0 КГц
Битовая глубина : 16 бит
Метод сжатия : С потерями
Размер потока : 272 Мбайт (6%)
Язык : Russian

Аудио #2
Идентификатор : 3
Формат : DTS
Формат/Информация : Digital Theater Systems
Идентификатор кодека : A_DTS
Продолжительность : 1 ч. 24 м.
Вид битрейта : Постоянный
Битрейт : 1510 Кбит/сек
Каналы : 6 каналов
Расположение каналов : Front: L C R, Side: L R, LFE
Частота : 48,0 КГц
Битовая глубина : 24 бит
Метод сжатия : С потерями
Размер потока : 915 Мбайт (21%)
Язык : English




загрузка...
Правила, инструкции, FAQ!!!
Торрент  Добавлен [03 мар 2013, 22:06] Скачать торрент
Скачать торрент
[ Размер 22.36 КБ / Просмотров 7 ]

Статус  
 
Размер  4.36 ГБ
Приватный: Нет (DHT включён)
.torrent скачан  0
Как залить торрент? | Как скачать Torrent? | Как смотреть и слушать онлайн?  


     Отправить личное сообщение
   
Страница 1 из 1
Показать сообщения за:  Поле сортировки  
Начать новую тему Ответить на тему

   Похожие торренты   Автор   Ответы   Просмотры   Последнее сообщение 
В этой теме нет новых непрочитанных сообщений. Скачать торрент Американская История X / American History X (Тони Кэй / Tony Kaye) [1080p] [1998 г., Криминальная драма, BDRip]

в форуме 720p | 1080p, Размер: 8.32 ГБ, Здоровье: 0%

Anonymous

0
0|0

35
0

25 фев 2014, 22:41

Anonymous Перейти к последнему сообщению

В этой теме нет новых непрочитанных сообщений. Скачать торрент Американская мечта / American Dreamz (2006) DVDRip

в форуме Комедии, Размер: 1.36 ГБ, Здоровье: 0%

Anonymous

0
0|0

26
0

29 дек 2013, 21:29

Anonymous Перейти к последнему сообщению

В этой теме нет новых непрочитанных сообщений. Скачать торрент Проверен Монохром - Percival Everett / Персиваль Эверетт - American Desert / Американская пустыня [2006, FB2/RTF/PDF, RUS]

в форуме Зарубежная литература (XX и XXI век), Размер: 2.31 МБ, Здоровье: 0%

Anonymous

0
0|0

0
0

08 сен 2016, 18:38

Anonymous Перейти к последнему сообщению

В этой теме нет новых непрочитанных сообщений. Скачать торрент Американская история ужасов / American Horror Story [S01-03] (2012-2014) WEB-DLRip | LostFilm

в форуме Зарубежные сериалы, Размер: 14.64 ГБ, Здоровье: 1%

Anonymous

0
1|64

84
4

02 фев 2014, 09:42

Anonymous Перейти к последнему сообщению

В этой теме нет новых непрочитанных сообщений. Скачать торрент Проверен Девственницы-самоубийцы / The Virgin Suicides (1999) BDRip 720p | P

в форуме 720p | 1080p, Размер: 6.97 ГБ, Здоровье: 100%

Гость

0
57|34

57
36

20 апр 2015, 00:09

Гость Перейти к последнему сообщению



Сейчас этот форум просматривают: нет зарегистрированных пользователей и гости: 3


Вы не можете начинать темы
Вы не можете отвечать на сообщения
Вы не можете редактировать свои сообщения
Вы не можете удалять свои сообщения
Вы не можете добавлять вложения

Перейти:  

!ВНИМАНИЕ!
 Ресурс не предоставляет электронные версии произведений, а занимается лишь коллекционированием и каталогизацией ссылок, присылаемых и публикуемых на форуме нашими читателями. Если вы являетесь правообладателем какого-либо представленного материала и не желаете чтобы ссылка на него находилась в нашем каталоге, свяжитесь с нами и мы незамедлительно удалим её. Файлы для обмена на трекере предоставлены пользователями сайта, и администрация не несёт ответственности за их содержание. Просьба не заливать файлы, защищенные авторскими правами, а также файлы нелегального содержания!