На всех торрентах на трекере установлена скидка на скачивание в размере 100 процентов(а).
 Возможность скачивания торрента НЕ зависит от ограничений при низком ратио, низком аплоаде, требуемом ратио или требуемом аплоаде.


Начать новую тему Ответить на тему
Статистика раздачи
Размер: 2.22 ГБ | Добавлен: 03 мар 2013, 10:24 | Скачали: 2
Сидеров: 8  [0 байт/сек]    Личеров: 1  [0 байт/сек]
Пред. тема | След. тема 

Автор
Сообщение

СообщениеДобавлено: 03 мар 2013, 10:24 

Папе снова 17 / 17 Again




Название: Папе снова 17
Оригинальное название: 17 Again
Год выхода: 2009
Жанр: комедия, фэнтези, драма, мелодрама
Режиссер: Барр Стирс

В фильме снимались: Зак Эфрон, Лесли Манн, Томас Леннон, Мэттью Перри, Тайлер Стилман, Эллисон Миллер, Стерлинг Найт, Мишель Трахтенберг, Адам Грегори, Хантер Пэрриш

О фильме:
Еще одна история про то, как взрослый герой просыпается утром молодым. На этот раз шанс прожить жизнь заново выпадает добропорядочному буржуа Майку О'Доннелу, променявшим свои спортивные таланты на тоскливое прозябание в кругу семьи, которой, судя по всему, он уже совсем не нужен.Все мы в глубине души мечтаем хотя бы ненадолго вернуться во времена своей юности. И как бы фантастически это не звучало, некоторым удается снова стать молодыми — обычный мужчина средних лет, отец семейства Майк О'Доннел, в один прекрасный день встречает старика, который делает его... семнадцатилетним подростком! Майку предстоит вновь пойти в школу и учится в одном классе с собственной дочерью. Но так ли просто будет 37-летнему мужчине в теле тинейджера найти общий язык с современными подростками?



Страна: США
Студия: New Line Cinema, Offspring Entertainment
Продолжительность: 01:41:56
Перевод: Дублированный

Формат: mkv
Кодек: h.264
Качество: BDRip-AVC
Видео: MPEG-4 AVC, 2346 Кбит/с, 1024x426, 23.976 кадр/с

Звук: Русский, английский (AC3, 6 ch, 384 Кбит/с)

Субтитры: Русские, английские

Полное имя : Pape.snova.17.2009.x264.BDRip.(AVC).0ptimus.mkv
Формат : Matroska
Версия формата : Version 4 / Version 2
Размер файла : 2,22 Гбайт
Продолжительность : 1 ч. 41 м.
Общий поток : 3113 Кбит/сек
Название фильма : Папе снова 17 | 17 Again [2009] -=BDRip (AVC) by 0ptimus=-
Дата кодирования : UTC 2013-03-02 06:45:46
Программа кодирования : mkvmerge v6.0.0 ('Coming Up For Air') built on Jan 20 2013 09:52:00
Библиотека кодирования : libebml v1.3.0 + libmatroska v1.4.0

Видео
Идентификатор : 1
Формат : AVC
Формат/Информация : Advanced Video Codec
Профиль формата : High@L4.1
Параметр CABAC формата : Да
Параметр ReFrames формата : 8 кадров
Идентификатор кодека : V_MPEG4/ISO/AVC
Продолжительность : 1 ч. 41 м.
Битрейт : 2346 Кбит/сек
Ширина : 1024 пикселя
Высота : 426 пикселей
Соотношение сторон : 2,40:1
Режим частоты кадров : Постоянный
Частота кадров : 23,976 кадра/сек
Цветовое пространство : YUV
Субдискретизация насыщенности : 4:2:0
Битовая глубина : 8 бит
Тип развёртки : Прогрессивная
Бит/(Пиксели*Кадры) : 0.224
Размер потока : 1,63 Гбайт (73%)
Заголовок : Rip by -ptimus
Библиотека кодирования : x264 core 129 r2245 bc13772
Настройки программы : cabac=1 / ref=8 / deblock=1:-3:-2 / analyse=0x3:0x113 / me=umh / subme=9 / psy=1 / psy_rd=1.00:0.20 / mixed_ref=1 / me_range=32 / chroma_me=1 / trellis=2 / 8x8dct=1 / cqm=0 / deadzone=21,11 / fast_pskip=0 / chroma_qp_offset=-3 / threads=3 / lookahead_threads=1 / sliced_threads=0 / nr=0 / decimate=0 / interlaced=0 / bluray_compat=0 / constrained_intra=0 / bframes=6 / b_pyramid=2 / b_adapt=2 / b_bias=0 / direct=3 / weightb=1 / open_gop=0 / weightp=2 / keyint=240 / keyint_min=23 / scenecut=40 / intra_refresh=0 / rc_lookahead=40 / rc=2pass / mbtree=0 / bitrate=2346 / ratetol=1.0 / qcomp=0.60 / qpmin=0 / qpmax=69 / qpstep=4 / cplxblur=20.0 / qblur=0.5 / vbv_maxrate=50000 / vbv_bufsize=50000 / nal_hrd=none / ip_ratio=1.40 / pb_ratio=1.30 / aq=1:1.00
Язык : English
Default : Да
Forced : Да

Аудио #1
Идентификатор : 2
Формат : AC-3
Формат/Информация : Audio Coding 3
Расширение режима : CM (complete main)
Параметр Endianness формата : Big
Идентификатор кодека : A_AC3
Продолжительность : 1 ч. 41 м.
Вид битрейта : Постоянный
Битрейт : 384 Кбит/сек
Каналы : 6 каналов
Расположение каналов : Front: L C R, Side: L R, LFE
Частота : 48,0 КГц
Битовая глубина : 16 бит
Метод сжатия : С потерями
Размер потока : 280 Мбайт (12%)
Заголовок : Дублированный [Мосфильм]
Язык : Russian
Default : Да
Forced : Да

Аудио #2
Идентификатор : 3
Формат : AC-3
Формат/Информация : Audio Coding 3
Расширение режима : CM (complete main)
Параметр Endianness формата : Big
Идентификатор кодека : A_AC3
Продолжительность : 1 ч. 41 м.
Вид битрейта : Постоянный
Битрейт : 384 Кбит/сек
Каналы : 6 каналов
Расположение каналов : Front: L C R, Side: L R, LFE
Частота : 48,0 КГц
Битовая глубина : 16 бит
Метод сжатия : С потерями
Размер потока : 280 Мбайт (12%)
Язык : English
Default : Нет
Forced : Нет

Текст #1
Идентификатор : 4
Формат : UTF-8
Идентификатор кодека : S_TEXT/UTF8
Идентификатор кодека/Информация : UTF-8 Plain Text
Заголовок : Forced
Язык : Russian
Default : Нет
Forced : Нет

Текст #2
Идентификатор : 5
Формат : UTF-8
Идентификатор кодека : S_TEXT/UTF8
Идентификатор кодека/Информация : UTF-8 Plain Text
Заголовок : Full
Язык : Russian
Default : Нет
Forced : Нет

Текст #3
Идентификатор : 6
Формат : UTF-8
Идентификатор кодека : S_TEXT/UTF8
Идентификатор кодека/Информация : UTF-8 Plain Text
Язык : English
Default : Нет
Forced : Нет

Меню
00:00:00.000 : :His Big Night
00:06:42.985 : :Mostly Negative
00:10:06.772 : :Nice Chatting with You
00:16:30.072 : :Transformation
00:18:24.228 : :Not-So-Mortal Combat
00:22:41.068 : :This Is My Chance
00:25:43.833 : :Registration
00:29:37.692 : :Cool to Delicious
00:33:28.214 : :Men's Room Rescue
00:36:00.992 : :Bully Ball
00:40:16.622 : :Distracting Resemblance
00:44:41.345 : :Fighting and Peacocking
00:49:22.084 : :Horning In
00:53:09.102 : :Dance with Alex's Mom
00:58:35.011 : :Afire with Fatherly Ire
01:03:51.118 : :Successful Shots
01:07:36.802 : :A Magnet to Maggie
01:10:27.473 : :Your Lair or Mine?
01:16:16.697 : :Party's Over
01:20:28.657 : :Letter From the Heart
01:26:47.952 : :Big Night Redux
01:30:55.825 : :Best Decision
01:34:44.804 : :Don't Blow It
01:35:28.389 : :End Credits

x264 [info]: frame I:1788 Avg QP:17.14 size: 71305
x264 [info]: frame P:32318 Avg QP:19.27 size: 23879
x264 [info]: frame B:112516 Avg QP:20.98 size: 7925



загрузка...
Правила, инструкции, FAQ!!!
Торрент  Добавлен [03 мар 2013, 10:24] Скачать торрент
Скачать торрент
[ Размер 11.56 КБ / Просмотров 5 ]

Статус  
 
Размер  2.22 ГБ
Приватный: Нет (DHT включён)
.torrent скачан  2
Как залить торрент? | Как скачать Torrent? | Как смотреть и слушать онлайн?  


     Отправить личное сообщение
   
Страница 1 из 1
Показать сообщения за:  Поле сортировки  
Начать новую тему Ответить на тему

   Похожие торренты   Автор   Ответы   Просмотры   Последнее сообщение 
В этой теме нет новых непрочитанных сообщений. Скачать торрент Проверен Папе снова 17 / 17 Again (2009) BDRip от HQ-ViDEO | D

в форуме Комедии, Размер: 1.46 ГБ, Здоровье: 100%

Гость

0
82|33

130
63

28 апр 2015, 23:02

Гость Перейти к последнему сообщению

В этой теме нет новых непрочитанных сообщений. Скачать торрент Проверен Папе снова 17 / 17 Again (2009) BDRip 720p | Лицензия

в форуме 720p | 1080p, Размер: 3.62 ГБ, Здоровье: 100%

Гость

0
182|16

130
326

28 апр 2015, 23:06

Гость Перейти к последнему сообщению

В этой теме нет новых непрочитанных сообщений. Скачать торрент Двойная жизнь Чарли Сан-Клауда / Charlie St. Cloud (Бёрр Стирс / Burr Steers) [2010 г., драма, мелодрама, BDRip-AVC] Dub

в форуме Драмы, Мелодрамы, Размер: 1.46 ГБ, Здоровье: 100%

Anonymous

0
56|19

36
0

15 апр 2014, 08:18

Anonymous Перейти к последнему сообщению

В этой теме нет новых непрочитанных сообщений. Скачать торрент Снова ты / You Again (Энди Фикмен / Andy Fickman) [2010, США, мелодрама, комедия, BDRip] DUB (лицензия)

в форуме Драмы, Мелодрамы, Размер: 1.46 ГБ, Здоровье: 0%

Anonymous

0
0|0

96
0

06 фев 2014, 11:44

Anonymous Перейти к последнему сообщению

В этой теме нет новых непрочитанных сообщений. Скачать торрент Проверен Невероятная жизнь Уолтера Митти / The Secret Life of Walter Mitty (Бен Стиллер / Ben Stiller) [2013, США, приключения, мелодрама, драма, комедия, фэнтези, BDRip, 480p] Dub + Original + eng sub

в форуме Фильмы для iPod, iPhone, iPad, Размер: 1.65 ГБ, Здоровье: 100%

Anonymous

0
10|4

32
1

12 май 2015, 00:13

Anonymous Перейти к последнему сообщению



Сейчас этот форум просматривают: нет зарегистрированных пользователей и гости: 1


Вы не можете начинать темы
Вы не можете отвечать на сообщения
Вы не можете редактировать свои сообщения
Вы не можете удалять свои сообщения
Вы не можете добавлять вложения

Перейти:  

!ВНИМАНИЕ!
 Ресурс не предоставляет электронные версии произведений, а занимается лишь коллекционированием и каталогизацией ссылок, присылаемых и публикуемых на форуме нашими читателями. Если вы являетесь правообладателем какого-либо представленного материала и не желаете чтобы ссылка на него находилась в нашем каталоге, свяжитесь с нами и мы незамедлительно удалим её. Файлы для обмена на трекере предоставлены пользователями сайта, и администрация не несёт ответственности за их содержание. Просьба не заливать файлы, защищенные авторскими правами, а также файлы нелегального содержания!