На всех торрентах на трекере установлена скидка на скачивание в размере 100 процентов(а).
 Возможность скачивания торрента НЕ зависит от ограничений при низком ратио, низком аплоаде, требуемом ратио или требуемом аплоаде.


Начать новую тему Ответить на тему
Статистика раздачи
Размер: 7.75 ГБ | Добавлен: 17 авг 2014, 15:24 | Скачали: 249
Сидеров: 16  [0 байт/сек]    Личеров: 1  [0 байт/сек]
Пред. тема | След. тема 

Автор
Сообщение

СообщениеДобавлено: 17 авг 2014, 15:24 

Название: Бриллиантовый полицейский
Оригинальное название: Blue Streak
Год выпуска: 1999
Жанр: Боевик, триллер, комедия, криминал
Выпущено: США, Германия, Blue Streak Productions, Columbia Pictures Corporation, Global Entertainment Productions GmbH & Company Medien KG
Режиссер: Лес Мэйфилд

В ролях: Мартин Лоуренс, Люк Уилсон, Питер Грин, Дэйв Шапелл, Николь Ари Паркер, Грэм Беккел, Роберт Миранда, Олек Крупа, Саверио Гуэрра, Тамала Джонс, Хулио Оскар Мечосо, Стив Рэнкин, Кармен Ардженциано, Джон Хоукс, Роберт ЛаСардо

Перевод: Дублированный, профессиональный многоголосый

Сюжет фильма
Майлз Логан, вор высочайшей квалификации, похищает тщательно охраняемый огромный бриллиант и, уходя от погони, прячет его в вентиляционном люке недостроенного здания. Через два года он выходит из тюрьмы, возвращается за камнем, но в здании располагается участок лос-анжелесской полиции. Делать нечего, и он делает себе документы детектива. Личное дело было так оформлено, что начальство рекомендовало Логану сразу же приступить к работе. Богатый профессиональный опыт вора помогает ему моментально раскрывать кражи. Его назначают начальником отдела краж...




Качество: BDRip 1080p (исходник Blu-ray)
Видео: 1920x1038, 9880 Кбит/сек, 23.976 кадр/сек, AVC, x264, High@L4.1, 0.207 Бит/[Пиксели*Кадры], 2pass
Аудио 1: AC3 5.1 48 kHz 640 kbps - Дублированный, (Blu-ray CEE)
Аудио 2: AC3 5.1 48 kHz 448 kbps - профессиональный (многоголосый закадровый)
Аудио 3: AC3 2.0 48 kHz 192 kbps - профессиональный (многоголосый закадровый) - ОРТ
Аудио 4: AC3 5.1 48 kHz 640 kbps - English
Чаптеры: есть
Субтитры: Russian
Продолжительность: 01:34:06
Автор рипа: Сообщество:


Format : Matroska
Format version : Version 2
File size : 7.75 GiB
Duration : 1h 34mn
Overall bit rate : 11.8 Mbps
Movie name : Brilliantovyj policejskij.(1999).BDRip.1080p.[denis100]
Encoded date : UTC 2014-03-12 09:40:39
Writing application : mkvmerge v5.8.0 ('No Sleep / Pillow') built on Sep 2 2012 15:37:04
Writing library : libebml v1.2.3 + libmatroska v1.3.0

Video
ID : 1
Format : AVC
Format/Info : Advanced Video Codec
Format profile : High@L4.1
Format settings, CABAC : Yes
Format settings, ReFrames : 4 frames
Codec ID : V_MPEG4/ISO/AVC
Duration : 1h 34mn
Bit rate : 9 880 Kbps
Width : 1 920 pixels
Height : 1 038 pixels
Display aspect ratio : 1.85:1
Frame rate mode : Constant
Frame rate : 23.976 fps
Color space : YUV
Chroma subsampling : 4:2:0
Bit depth : 8 bits
Scan type : Progressive
Bits/(Pixel*Frame) : 0.207
Stream size : 6.34 GiB (82%)
Title : Brilliantovyj policejskij.(1999).BDRip.1080p.[denis100]
Writing library : x264 core 138 r2358 9e941d1
Encoding settings : cabac=1 / ref=4 / deblock=1:-3:-3 / analyse=0x3:0x133 / me=umh / subme=11 / psy=1 / psy_rd=1.00:0.10 / mixed_ref=1 / me_range=32 / chroma_me=1 / trellis=2 / 8x8dct=1 / cqm=0 / deadzone=21,11 / fast_pskip=0 / chroma_qp_offset=-3 / threads=6 / lookahead_threads=1 / sliced_threads=0 / nr=0 / decimate=1 / interlaced=0 / bluray_compat=0 / constrained_intra=0 / bframes=6 / b_pyramid=2 / b_adapt=2 / b_bias=0 / direct=3 / weightb=1 / open_gop=0 / weightp=2 / keyint=240 / keyint_min=23 / scenecut=40 / intra_refresh=0 / rc=2pass / mbtree=0 / bitrate=9880 / ratetol=1.0 / qcomp=0.60 / qpmin=0 / qpmax=69 / qpstep=4 / cplxblur=20.0 / qblur=0.5 / ip_ratio=1.40 / pb_ratio=1.30 / aq=1:0.90
Language : English
Default : Yes
Forced : No

Audio #1
ID : 2
Format : AC-3
Format/Info : Audio Coding 3
Mode extension : CM (complete main)
Format settings, Endianness : Big
Codec ID : A_AC3
Duration : 1h 34mn
Bit rate mode : Constant
Bit rate : 640 Kbps
Channel(s) : 6 channels
Channel positions : Front: L C R, Side: L R, LFE
Sampling rate : 48.0 KHz
Bit depth : 16 bits
Compression mode : Lossy
Stream size : 431 MiB (5%)
Title : дубляж (Blu-ray CEE)
Language : Russian
Default : Yes
Forced : No

Audio #2
ID : 3
Format : AC-3
Format/Info : Audio Coding 3
Mode extension : CM (complete main)
Format settings, Endianness : Big
Codec ID : A_AC3
Duration : 1h 34mn
Bit rate mode : Constant
Bit rate : 448 Kbps
Channel(s) : 6 channels
Channel positions : Front: L C R, Side: L R, LFE
Sampling rate : 48.0 KHz
Bit depth : 16 bits
Compression mode : Lossy
Stream size : 302 MiB (4%)
Title : профессиональный (многоголосый закадровый)
Language : Russian
Default : No
Forced : No

Audio #3
ID : 4
Format : AC-3
Format/Info : Audio Coding 3
Mode extension : CM (complete main)
Format settings, Endianness : Big
Codec ID : A_AC3
Duration : 1h 34mn
Bit rate mode : Constant
Bit rate : 192 Kbps
Channel(s) : 2 channels
Channel positions : Front: L R
Sampling rate : 48.0 KHz
Bit depth : 16 bits
Compression mode : Lossy
Stream size : 129 MiB (2%)
Title : профессиональный (многоголосый закадровый) - ОРТ
Language : Russian
Default : No
Forced : No

Audio #4
ID : 5
Format : AC-3
Format/Info : Audio Coding 3
Mode extension : CM (complete main)
Format settings, Endianness : Big
Codec ID : A_AC3
Duration : 1h 34mn
Bit rate mode : Constant
Bit rate : 640 Kbps
Channel(s) : 6 channels
Channel positions : Front: L C R, Side: L R, LFE
Sampling rate : 48.0 KHz
Bit depth : 16 bits
Compression mode : Lossy
Stream size : 431 MiB (5%)
Title : English
Language : English
Default : No
Forced : No

Text
ID : 6
Format : UTF-8
Codec ID : S_TEXT/UTF8
Codec ID/Info : UTF-8 Plain Text
Title : Russian
Language : Russian
Default : No
Forced : No

Menu
00:00:00.000 : en:00:00:00.000
00:11:04.330 : en:00:11:04.330
00:18:03.082 : en:00:18:03.082
00:22:22.383 : en:00:22:22.383
00:30:13.895 : en:00:30:13.895
00:35:49.314 : en:00:35:49.314
00:38:51.246 : en:00:38:51.246
00:47:50.493 : en:00:47:50.493
00:50:29.026 : en:00:50:29.026
00:56:26.258 : en:00:56:26.258
01:03:15.125 : en:01:03:15.125
01:07:44.477 : en:01:07:44.477
01:11:27.533 : en:01:11:27.533
01:17:29.144 : en:01:17:29.144
01:23:10.986 : en:01:23:10.986

x264 [info]: frame I:949 Avg QP:20.56 size:147286
x264 [info]: frame P:31526 Avg QP:21.13 size: 81528
x264 [info]: frame B:102910 Avg QP:23.50 size: 39711
загрузка...
Правила, инструкции, FAQ!!!
Торрент  Добавлен [17 авг 2014, 15:24] Скачать торрент
Скачать торрент
[ Размер 39.29 КБ / Просмотров 14 ]

Статус
Проверен 
 
Размер  7.75 ГБ
Приватный: Нет (DHT включён)
.torrent скачан  249
Как залить торрент? | Как скачать Torrent? | Как смотреть и слушать онлайн?  


     Отправить личное сообщение
   
Страница 1 из 1
Показать сообщения за:  Поле сортировки  
Начать новую тему Ответить на тему

   Похожие торренты   Автор   Ответы   Просмотры   Последнее сообщение 
В этой теме нет новых непрочитанных сообщений. Скачать торрент Проверен Ромео истекает кровью / Полицейский под прицелом / Romeo Is Bleeding (1993) BDRip 1080p | P, P2, A

в форуме 720p | 1080p, Размер: 15.35 ГБ, Здоровье: 100%

Anonymous

0
17|3

92
62

17 июл 2016, 07:58

Anonymous Перейти к последнему сообщению

В этой теме нет новых непрочитанных сообщений. Скачать торрент Проверен (Melodic Power\neoclassical metal) Satoshi Katada - Blue streak - 2006, MP3, 192 kbps

в форуме Heavy, Power, Progressive (Metal), Размер: 41.97 МБ, Здоровье: 0%

Anonymous

0
0|0

1
0

09 окт 2016, 15:02

Anonymous Перейти к последнему сообщению

В этой теме нет новых непрочитанных сообщений. Скачать торрент Проверен Катастрофа / Blue Ruin (2013) BDRip [H.264/1080p-LQ]

в форуме 720p | 1080p, Размер: 4.38 ГБ, Здоровье: 100%

Anonymous

0
25|1

25
1

18 июл 2014, 00:09

Anonymous Перейти к последнему сообщению

В этой теме нет новых непрочитанных сообщений. Скачать торрент Проверен Синий бархат / Blue Velvet (1986) BDRip 1080p | P2,A

в форуме 720p | 1080p, Размер: 13.62 ГБ, Здоровье: 58%

Гость

0
56|95

235
121

07 июн 2015, 14:13

Гость Перейти к последнему сообщению

В этой теме нет новых непрочитанных сообщений. Скачать торрент Проверен Blue Man Group:How to be a Megastar LIVE! [2008, Experimental Rock, BDRip 1080p]

в форуме Концерты (HD-Video), Размер: 6.94 ГБ, Здоровье: 100%

Anonymous

0
7|2

7
0

23 окт 2016, 19:27

Anonymous Перейти к последнему сообщению



Сейчас этот форум просматривают: нет зарегистрированных пользователей и гости: 4


Вы не можете начинать темы
Вы не можете отвечать на сообщения
Вы не можете редактировать свои сообщения
Вы не можете удалять свои сообщения
Вы не можете добавлять вложения

Перейти:  

!ВНИМАНИЕ!
 Ресурс не предоставляет электронные версии произведений, а занимается лишь коллекционированием и каталогизацией ссылок, присылаемых и публикуемых на форуме нашими читателями. Если вы являетесь правообладателем какого-либо представленного материала и не желаете чтобы ссылка на него находилась в нашем каталоге, свяжитесь с нами и мы незамедлительно удалим её. Файлы для обмена на трекере предоставлены пользователями сайта, и администрация не несёт ответственности за их содержание. Просьба не заливать файлы, защищенные авторскими правами, а также файлы нелегального содержания!