На всех торрентах на трекере установлена скидка на скачивание в размере 100 процентов(а).
 Возможность скачивания торрента НЕ зависит от ограничений при низком ратио, низком аплоаде, требуемом ратио или требуемом аплоаде.


Начать новую тему Ответить на тему
Статистика раздачи
Размер: 7.76 ГБ | Добавлен: 17 авг 2014, 15:19 | Скачали: 880
Сидеров: 35  [0 байт/сек]    Личеров: 0  [0 байт/сек]
Пред. тема | След. тема 

Автор
Сообщение

СообщениеДобавлено: 17 авг 2014, 15:19 

Название: Пандорум
Оригинальное название: Pandorum
Год выхода: 2009
Жанр: ужасы, фантастика, боевик, триллер
Режиссер: Кристиан Алверт

В ролях: Деннис Куэйд, Бен Фостер, Кэм Жиганде, Антье Трое, Кунг Ле, Эдди Роус, Норман Ридус, Андре Хеннике, Фридерике Кемптер, Нильс-Бруно Шмидт

О фильме: В безднах космоса движется звездолет. Два члена команды, пробудившиеся от гиперсна, оказываются в сложной ситуации: оборудование не работает, вспомнить они ничего не могут. Какова была их миссия? Сколько времени прошло? Где они? Кто они? На все эти вопросы у них нет ответов. К тому же, на корабле обнаруживаются чужие — злобные воины, которые крушат все на своем пути.

У космических путешественников очень мало времени. Теперь для них собственные жизни — не самое главное, ибо только от них двоих, возможно, зависит спасение человечества. Нужно любой ценой восстановить управление кораблем, пока загадочный Пандорум не взял власть в свои руки.



Выпущено: Constantin Film Produktion
Продолжительность: 01:48:05
Перевод: Дублированный (лицензия)


Кодек: x264
Качество: BDRip (источник: Blu-ray Disc)
Видео: 1920x816 (2,35:1), 23.976 fps, 9380 kbps
Аудио #1: AC-3, 6 ch, 448 kbps (Rus)
Аудио #2: AC-3, 6 ch, 448 kbps (Eng)
Субтитры: Русские, Английские
Скачать: сэмпл

Скриншоты

Общее
Уникальный идентификатор : 209862495216373254354341720620908144615 (0x9DE20BDF2C5A77FEA7B751258DAFE7E7)
Полное имя : Pandorum.2009.BDRip.1080p.Rus.Eng.mkv
Формат : Matroska
Версия формата : Version 2
Размер файла : 7,76 Гбайт
Продолжительность : 1 ч. 48 м.
Общий поток : 10,3 Мбит/сек
Название фильма : Пандорум / Pandorum (2009)
Дата кодирования : UTC 2012-11-03 18:14:58
Программа кодирования : mkvmerge v5.8.0 ('No Sleep / Pillow') built on Sep 2 2012 15:37:04
Библиотека кодирования : libebml v1.2.3 + libmatroska v1.3.0

Видео
Идентификатор : 1
Формат : AVC
Формат/Информация : Advanced Video Codec
Профиль формата : High@L4.1
Параметр CABAC формата : Да
Параметр ReFrames формата : 5 кадров
Идентификатор кодека : V_MPEG4/ISO/AVC
Продолжительность : 1 ч. 48 м.
Битрейт : 9380 Кбит/сек
Ширина : 1920 пикселей
Высота : 816 пикселей
Соотношение сторон : 2,35:1
Частота кадров : 23,976 кадра/сек
Цветовое пространство : YUV
Субдискретизация насыщенности : 4:2:0
Битовая глубина : 8 бит
Тип развёртки : Прогрессивная
Бит/(Пиксели*Кадры) : 0.250
Размер потока : 6,93 Гбайт (89%)
Заголовок : Release by AlexKa
Библиотека кодирования : x264 core 128 r2216 198a7ea
Настройки программы : cabac=1 / ref=5 / deblock=1:-3:-3 / analyse=0x3:0x133 / me=umh / subme=10 / psy=1 / psy_rd=1.10:0.10 / mixed_ref=1 / me_range=32 / chroma_me=1 / trellis=2 / 8x8dct=1 / cqm=0 / deadzone=21,11 / fast_pskip=0 / chroma_qp_offset=-3 / threads=12 / lookahead_threads=2 / sliced_threads=0 / nr=0 / decimate=0 / interlaced=0 / bluray_compat=0 / constrained_intra=0 / bframes=5 / b_pyramid=2 / b_adapt=2 / b_bias=0 / direct=3 / weightb=1 / open_gop=0 / weightp=2 / keyint=240 / keyint_min=23 / scenecut=40 / intra_refresh=0 / rc=2pass / mbtree=0 / bitrate=9380 / ratetol=1.0 / qcomp=0.60 / qpmin=0 / qpmax=69 / qpstep=4 / cplxblur=20.0 / qblur=0.5 / ip_ratio=1.40 / pb_ratio=1.30 / aq=1:0.80
Язык : English

Аудио #1
Идентификатор : 2
Формат : AC-3
Формат/Информация : Audio Coding 3
Расширение режима : CM (complete main)
Идентификатор кодека : A_AC3
Продолжительность : 1 ч. 48 м.
Вид битрейта : Постоянный
Битрейт : 448 Кбит/сек
Каналы : 6 каналов
Расположение каналов : Front: L C R, Side: L R, LFE
Частота : 48,0 КГц
Битовая глубина : 16 бит
Метод сжатия : С потерями
Размер потока : 346 Мбайт (4%)
Заголовок : Rus
Язык : Russian

Аудио #2
Идентификатор : 3
Формат : AC-3
Формат/Информация : Audio Coding 3
Расширение режима : CM (complete main)
Идентификатор кодека : A_AC3
Продолжительность : 1 ч. 48 м.
Вид битрейта : Постоянный
Битрейт : 448 Кбит/сек
Каналы : 6 каналов
Расположение каналов : Front: L C R, Side: L R, LFE
Частота : 48,0 КГц
Битовая глубина : 16 бит
Метод сжатия : С потерями
Размер потока : 346 Мбайт (4%)
Заголовок : Eng
Язык : English

Текст #1
Идентификатор : 4
Формат : UTF-8
Идентификатор кодека : S_TEXT/UTF8
Идентификатор кодека/Информация : UTF-8 Plain Text
Заголовок : Rus
Язык : Russian

Текст #2
Идентификатор : 5
Формат : UTF-8
Идентификатор кодека : S_TEXT/UTF8
Идентификатор кодека/Информация : UTF-8 Plain Text
Заголовок : Eng
Язык : English

Меню
00:00:00.000 : :Chapter 01
00:02:56.424 : :Chapter 02
00:07:46.257 : :Chapter 03
00:12:18.234 : :Chapter 04
00:18:03.163 : :Chapter 05
00:28:38.633 : :Chapter 06
00:36:41.699 : :Chapter 07
00:44:31.126 : :Chapter 08
00:50:09.338 : :Chapter 09
00:57:23.313 : :Chapter 10
00:59:31.985 : :Chapter 11
01:03:38.898 : :Chapter 12
01:12:13.078 : :Chapter 13
01:25:28.081 : :Chapter 14
01:36:48.676 : :Chapter 15
01:41:26.203 : :Chapter 16
01:48:05.228 : :Chapter 17
x264 [info]: frame I:1443 Avg QP:17.17 size:216976
x264 [info]: frame P:37088 Avg QP:19.46 size: 87630
x264 [info]: frame B:116965 Avg QP:22.01 size: 34530
загрузка...
Правила, инструкции, FAQ!!!
Торрент  Добавлен [17 авг 2014, 15:19] Скачать торрент
Скачать торрент
[ Размер 39.36 КБ / Просмотров 15 ]

Статус
Проверен 
 
Размер  7.76 ГБ
Приватный: Нет (DHT включён)
.torrent скачан  880
Как залить торрент? | Как скачать Torrent? | Как смотреть и слушать онлайн?  


     Отправить личное сообщение
   
Страница 1 из 1
Показать сообщения за:  Поле сортировки  
Начать новую тему Ответить на тему

   Похожие торренты   Автор   Ответы   Просмотры   Последнее сообщение 
В этой теме нет новых непрочитанных сообщений. Скачать торрент Проверен Пандорум / Pandorum (2009) BDRip 720p | D | Лицензия

в форуме 720p | 1080p, Размер: 4.94 ГБ, Здоровье: 100%

Anonymous

0
40|4

43
727

17 авг 2014, 15:15

Anonymous Перейти к последнему сообщению

В этой теме нет новых непрочитанных сообщений. Скачать торрент Пандорум / Pandorum (Кристиан Алверт / Christian Alvart) [2009, Фантастика, боевик, триллер, ужасы, BDRip] AVO (Гаврилов)

в форуме Ужасы, Размер: 1.46 ГБ, Здоровье: 0%

Anonymous

0
0|0

37
0

12 фев 2014, 08:17

Anonymous Перейти к последнему сообщению

В этой теме нет новых непрочитанных сообщений. Скачать торрент Проверен [iPad] Пандорум / Pandorum (Кристиан Алверт / Christian Alvart) [2009 г., ужасы, фантастика, триллер, BDRip 720p]

в форуме Фильмы для iPod, iPhone, iPad, Размер: 2.46 ГБ, Здоровье: 100%

Гость

0
11|5

46
3

14 май 2015, 00:20

Гость Перейти к последнему сообщению

В этой теме нет новых непрочитанных сообщений. Скачать торрент Проверен Linkin Park - New Divide (2009) BDRip 1080p (Джо Хан) [2009, Alternative rock, BDRip]

в форуме Концерты (HD-Video), Размер: 451.32 МБ, Здоровье: 100%

Anonymous

0
3|1

1
0

23 окт 2016, 11:54

Anonymous Перейти к последнему сообщению

В этой теме нет новых непрочитанных сообщений. Скачать торрент Проверен Bon Jovi - When We Were Beautiful (Bonus) BDrip 1080p [2009, Rock, Documentary, BDRip]

в форуме Концерты (HD-Video), Размер: 4.09 ГБ, Здоровье: 100%

Anonymous

0
2|1

0
0

23 окт 2016, 14:23

Anonymous Перейти к последнему сообщению



Сейчас этот форум просматривают: нет зарегистрированных пользователей и гости: 3


Вы не можете начинать темы
Вы не можете отвечать на сообщения
Вы не можете редактировать свои сообщения
Вы не можете удалять свои сообщения
Вы не можете добавлять вложения

Перейти:  

!ВНИМАНИЕ!
 Ресурс не предоставляет электронные версии произведений, а занимается лишь коллекционированием и каталогизацией ссылок, присылаемых и публикуемых на форуме нашими читателями. Если вы являетесь правообладателем какого-либо представленного материала и не желаете чтобы ссылка на него находилась в нашем каталоге, свяжитесь с нами и мы незамедлительно удалим её. Файлы для обмена на трекере предоставлены пользователями сайта, и администрация не несёт ответственности за их содержание. Просьба не заливать файлы, защищенные авторскими правами, а также файлы нелегального содержания!