На всех торрентах на трекере установлена скидка на скачивание в размере 100 процентов(а).
 Возможность скачивания торрента НЕ зависит от ограничений при низком ратио, низком аплоаде, требуемом ратио или требуемом аплоаде.


Начать новую тему Ответить на тему
Статистика раздачи
Размер: 13.2 ГБ | Добавлен: 16 авг 2014, 21:22 | Скачали: 271
Сидеров: 33  [0 байт/сек]    Личеров: 16  [0 байт/сек]
Пред. тема | След. тема 

Автор
Сообщение

СообщениеДобавлено: 16 авг 2014, 21:22 

Название: Аттила-завоеватель
Оригинальное название: Attila
Год выхода: 2001
Жанр: Боевик, драма, мелодрама, приключения, военный, биография, история
Режиссер: Дик Лоури

В ролях: Джерард Батлер, Пауэрс Бут, Симон Маккинон, Рег Роджерс, Элис Крайдж, Полин Линч, Стивен Беркофф, Эндрю Плевин, Томми Флэнаган, Кирсти Митчел

О фильме:
Древние пророчества гласили, что однажды появится человек, который сможет объединить племена свирепых воинов и бросить вызов непобедимой Римской Империи, которая веками правила античным миром.
Имя этого человека стало легендарным и навсегда вошло в историю человечества: Аттила - бесстрашный повелитель гуннов. Фильм повествует о противостоянии двух самых могущественных людей своего времени и их армий: непокорного Аттилы и прославленного римского генерала Флавия.



Страна: США , Литва, Alphaville Films, Attila Productions, Michael R. Joyce Productions, USA Cable Network
Продолжительность: 02:54:51
Перевод: Профессиональный многоголосый (R5) / Профессиональный многоголосый / Авторский одноголосый (Визгунов)

Кодек: H.264
Качество: BDRip 1080p
Видео: MPEG-4 AVC, 8888 Кбит/с, 1920х1080, 23.976 кадр/с
Звук: Русский (AC3, 2 ch, 192 Кбит/с), (DTS, 6 ch, 755 Кбит/с), английский (DTS, 6 ch, 755 Кбит/с)
Субтитры: Русские, английские

Полное имя : E:Раздачи_EAttila.2001.x264.BDRip.1080p.NovaLan.mkv
Формат : Matroska
Версия формата : Version 4 / Version 2
Размер файла : 13,2 Гбайт
Продолжительность : 2 ч. 54 м.
Общий поток : 10,8 Мбит/сек
Название фильма : Attila 2001 - NovaLan
Дата кодирования : UTC 2014-08-16 10:31:24
Программа кодирования : mkvmerge v7.1.0 ('Good Love') 64bit built on Jul 27 2014 13:06:55
Библиотека кодирования : libebml v1.3.0 + libmatroska v1.4.1
DURATION : 02:51:44.669000000
NUMBER_OF_FRAMES : 1613
NUMBER_OF_BYTES : 55860
_STATISTICS_WRITING_APP : mkvmerge v7.1.0 ('Good Love') 64bit built on Jul 27 2014 13:06:55
_STATISTICS_WRITING_DATE_UTC : 2014-08-16 10:31:24
_STATISTICS_TAGS : BPS DURATION NUMBER_OF_FRAMES NUMBER_OF_BYTES

Видео
Идентификатор : 1
Формат : AVC
Формат/Информация : Advanced Video Codec
Профиль формата : High@L4.1
Параметр CABAC формата : Да
Параметр ReFrames формата : 4 кадра
Идентификатор кодека : V_MPEG4/ISO/AVC
Продолжительность : 2 ч. 54 м.
Битрейт : 8888 Кбит/сек
Ширина : 1920 пикселей
Высота : 1080 пикселей
Соотношение сторон : 16:9
Частота кадров : 23,976 кадра/сек
Цветовое пространство : YUV
Субдискретизация насыщенности : 4:2:0
Битовая глубина : 8 бит
Тип развёртки : Прогрессивная
Бит/(Пиксели*Кадры) : 0.179
Размер потока : 10,6 Гбайт (80%)
Заголовок : Sergei7721
Библиотека кодирования : x264 core 133 r2334 a3ac64b
Настройки программы : cabac=1 / ref=4 / deblock=1:-1:-1 / analyse=0x3:0x113 / me=umh / subme=11 / psy=1 / psy_rd=1.00:0.20 / mixed_ref=1 / me_range=24 / chroma_me=1 / trellis=2 / 8x8dct=1 / cqm=0 / deadzone=21,11 / fast_pskip=0 / chroma_qp_offset=-3 / threads=12 / lookahead_threads=1 / sliced_threads=0 / nr=0 / decimate=0 / interlaced=0 / bluray_compat=0 / constrained_intra=0 / bframes=6 / b_pyramid=2 / b_adapt=2 / b_bias=0 / direct=3 / weightb=1 / open_gop=0 / weightp=2 / keyint=240 / keyint_min=23 / scenecut=40 / intra_refresh=0 / rc_lookahead=40 / rc=2pass / mbtree=0 / bitrate=8888 / ratetol=1.0 / qcomp=0.60 / qpmin=0 / qpmax=69 / qpstep=4 / cplxblur=20.0 / qblur=0.5 / vbv_maxrate=50000 / vbv_bufsize=62500 / nal_hrd=none / ip_ratio=1.40 / pb_ratio=1.30 / aq=1:1.00
Default : Да
Forced : Нет
DURATION : 02:54:51.231000000
NUMBER_OF_FRAMES : 251538
NUMBER_OF_BYTES : 11653886967
_STATISTICS_WRITING_APP : mkvmerge v7.1.0 ('Good Love') 64bit built on Jul 27 2014 13:06:55
_STATISTICS_WRITING_DATE_UTC : 2014-08-16 10:31:24
_STATISTICS_TAGS : BPS DURATION NUMBER_OF_FRAMES NUMBER_OF_BYTES

Аудио #1
Идентификатор : 2
Формат : AC-3
Формат/Информация : Audio Coding 3
Расширение режима : CM (complete main)
Параметр Endianness формата : Big
Идентификатор кодека : A_AC3
Продолжительность : 2 ч. 54 м.
Вид битрейта : Постоянный
Битрейт : 192 Кбит/сек
Каналы : 2 канала
Расположение каналов : Front: L R
Частота : 48,0 КГц
Битовая глубина : 16 бит
Метод сжатия : С потерями
Размер потока : 240 Мбайт (2%)
Язык : Russian
Default : Да
Forced : Нет

Аудио #2
Идентификатор : 3
Формат : AC-3
Формат/Информация : Audio Coding 3
Расширение режима : CM (complete main)
Параметр Endianness формата : Big
Идентификатор кодека : A_AC3
Продолжительность : 2 ч. 54 м.
Вид битрейта : Постоянный
Битрейт : 192 Кбит/сек
Каналы : 2 канала
Расположение каналов : Front: L R
Частота : 48,0 КГц
Битовая глубина : 16 бит
Метод сжатия : С потерями
Размер потока : 240 Мбайт (2%)
Язык : Russian
Default : Нет
Forced : Нет

Аудио #3
Идентификатор : 4
Формат : DTS
Формат/Информация : Digital Theater Systems
Идентификатор кодека : A_DTS
Продолжительность : 2 ч. 54 м.
Вид битрейта : Постоянный
Битрейт : 755 Кбит/сек
Каналы : 6 каналов
Расположение каналов : Front: L C R, Side: L R, LFE
Частота : 48,0 КГц
Битовая глубина : 16 бит
Метод сжатия : С потерями
Размер потока : 944 Мбайт (7%)
Язык : Russian
Default : Нет
Forced : Нет

Аудио #4
Идентификатор : 5
Формат : DTS
Формат/Информация : Digital Theater Systems
Идентификатор кодека : A_DTS
Продолжительность : 2 ч. 54 м.
Вид битрейта : Постоянный
Битрейт : 755 Кбит/сек
Каналы : 6 каналов
Расположение каналов : Front: L C R, Side: L R, LFE
Частота : 48,0 КГц
Битовая глубина : 16 бит
Метод сжатия : С потерями
Размер потока : 944 Мбайт (7%)
Язык : English
Default : Нет
Forced : Нет

Текст #1
Идентификатор : 6
Формат : UTF-8
Идентификатор кодека : S_TEXT/UTF8
Идентификатор кодека/Информация : UTF-8 Plain Text
Язык : Russian
Default : Нет
Forced : Нет

Текст #2
Идентификатор : 7
Формат : UTF-8
Идентификатор кодека : S_TEXT/UTF8
Идентификатор кодека/Информация : UTF-8 Plain Text
Язык : English
Default : Нет
Forced : Нет

Меню
00:00:00.000 : en:00:00:00.000
00:14:04.467 : en:00:14:04.467
00:29:21.884 : en:00:29:21.884
00:42:07.273 : en:00:42:07.273
00:56:45.402 : en:00:56:45.402
01:11:57.479 : en:01:11:57.479
01:27:56.020 : en:01:27:56.020
01:40:10.337 : en:01:40:10.337
01:56:29.148 : en:01:56:29.148
02:08:33.663 : en:02:08:33.663
02:24:29.619 : en:02:24:29.619
02:39:29.433 : en:02:39:29.433


Релиз группы NovaLan
Автор релиза Sergei7721






Релиз от:
загрузка...
Правила, инструкции, FAQ!!!
Торрент  Добавлен [16 авг 2014, 21:22] Скачать торрент
Скачать торрент
[ Размер 66.54 КБ / Просмотров 12 ]

Статус
Проверен 
 
Размер  13.2 ГБ
Приватный: Нет (DHT включён)
.torrent скачан  271
Как залить торрент? | Как скачать Torrent? | Как смотреть и слушать онлайн?  


     Отправить личное сообщение
   
Страница 1 из 1
Показать сообщения за:  Поле сортировки  
Начать новую тему Ответить на тему

   Похожие торренты   Автор   Ответы   Просмотры   Последнее сообщение 
В этой теме нет новых непрочитанных сообщений. Скачать торрент Проверен Аттила-завоеватель / Attila (2001) BDRip

в форуме Боевики, Размер: 2.91 ГБ, Здоровье: 100%

Anonymous

0
165|22

83
2020

18 авг 2014, 09:44

Anonymous Перейти к последнему сообщению

В этой теме нет новых непрочитанных сообщений. Скачать торрент Проверен Мой Аттила Марсель / Attila Marcel (2013) BDRip 1080p | iTunes

в форуме 720p | 1080p, Размер: 8.59 ГБ, Здоровье: 100%

Гость

0
39|6

78
44

16 ноя 2015, 00:05

Гость Перейти к последнему сообщению

В этой теме нет новых непрочитанных сообщений. Скачать торрент Проверен Мой Аттила Марсель / Attila Marcel (2013) HDRip | iTunes

в форуме Комедии, Размер: 1.37 ГБ, Здоровье: 0%

Anonymous

0
0|0

47
0

17 июл 2014, 06:31

Anonymous Перейти к последнему сообщению

В этой теме нет новых непрочитанных сообщений. Скачать торрент Проверен (NWOBHM/power-metal) Attila - Attila - 1990, MP3, 320 kbps

в форуме Heavy, Power, Progressive (Metal), Размер: 146.97 МБ, Здоровье: 0%

Anonymous

0
0|0

1
0

08 окт 2016, 19:13

Anonymous Перейти к последнему сообщению

В этой теме нет новых непрочитанных сообщений. Скачать торрент Проверен (Hard Rock, Acid Rock) [CD] Attila- Attila - 1970 (South Side USA 2009), FLAC (tracks+.cue), lossless

в форуме Classic Rock & Hard Rock, Размер: 273.16 МБ, Здоровье: 0%

Anonymous

0
0|0

0
0

03 сен 2016, 22:38

Anonymous Перейти к последнему сообщению



Сейчас этот форум просматривают: нет зарегистрированных пользователей и гости: 5


Вы не можете начинать темы
Вы не можете отвечать на сообщения
Вы не можете редактировать свои сообщения
Вы не можете удалять свои сообщения
Вы не можете добавлять вложения

Перейти:  

!ВНИМАНИЕ!
 Ресурс не предоставляет электронные версии произведений, а занимается лишь коллекционированием и каталогизацией ссылок, присылаемых и публикуемых на форуме нашими читателями. Если вы являетесь правообладателем какого-либо представленного материала и не желаете чтобы ссылка на него находилась в нашем каталоге, свяжитесь с нами и мы незамедлительно удалим её. Файлы для обмена на трекере предоставлены пользователями сайта, и администрация не несёт ответственности за их содержание. Просьба не заливать файлы, защищенные авторскими правами, а также файлы нелегального содержания!