На всех торрентах на трекере установлена скидка на скачивание в размере 100 процентов(а).
 Возможность скачивания торрента НЕ зависит от ограничений при низком ратио, низком аплоаде, требуемом ратио или требуемом аплоаде.


Начать новую тему Ответить на тему
Статистика раздачи
Размер: 2.18 ГБ | Добавлен: 02 мар 2013, 14:12 | Скачали: 0
Сидеров: 0  [0 байт/сек]    Личеров: 0  [0 байт/сек]
Пред. тема | След. тема 

Автор
Сообщение

СообщениеДобавлено: 02 мар 2013, 14:12 

Мертвец идет / Dead Man Walking



Название: Мертвец идет
Год выхода: 1995
Жанр: драма, криминал
Режиссер: Тим Роббинс

В фильме снимались: Сьюзен Сарандон, Шон Пенн, Роберт Проски, Рэймонд Дж. Бэрри, Р. Ли Эрми, Селия Уэстон, Лоис Смит, Скотт Уилсон, Роберта Максвелл, Марго Мартиндейл, Бартон Хейман, Стив Боулс, Несбитт Блэйсделл, Рэй Аранья, Ларри Пайн, Гил Роббинс, Кевин Куни, Клэнси Браун, Адель Роббинс, Майкл Каллен, Питер Сарсгаард, Мисси Ягер, Дженни Крокмал, Джек Блэк, Джон Абрахамс, Артур Бриджерс, Стив Карлайл, Хелен Хестер, Ева Амурри, Джек Генри Роббинс, Гари 'Бадди' Боэ, Эми Лонг, Дэннис Ф. Нил, Молли Брайант, Адриан Колон, Джон Д. Уилмот, Маргарет Лэйн, Сэлли Энн Робертс, Алек Гиффорд, Майк Лонгмэн, Пит Буррис, Джоан Гловер

Вкратце: Монахиня становится духовной наставницей заключённого приговарённого к смерти. Облегчит ли она ему оставшиеся дни его жизни, сможет ли уговорить покаяться, избежит ли он смертной казни...



Страна: США, Великобритания
Студия: Havoc, Polygram Filmed Entertainment, Working Title Films
Продолжительность: 01:55:33
Перевод: Профессиональный двухголосый

Формат: mkv
Кодек: Н264
Качество: HDRip-AVC
Видео: MPEG-4 AVC, 2090 Кбит/с, 1024x552, 25.000 кадр/с
Звук: Русский (AC3, 6 ch, 224 Кбит/с), английский (AC3, 2 ch, 384 Кбит/с)
Субтитры: Русские




Полное имя : F:Dead.Man.Walking.1995.x264.HDTVRip.(AVC).Marvel.mkv
Формат : Matroska
Версия формата : Version 1
Размер файла : 2,18 Гбайт
Продолжительность : 1 ч. 55 м.
Общий поток : 2700 Кбит/сек
Название фильма : Dead Man Walking (1995) -=Marvel=-
Дата кодирования : UTC 2013-03-02 08:22:13
Программа кодирования : mkvmerge v2.1.0 ('Another Place To Fall') built on Aug 19 2007 13:40:07
Библиотека кодирования : libebml v0.7.7 + libmatroska v0.8.1

Видео
Идентификатор : 1
Формат : AVC
Формат/Информация : Advanced Video Codec
Профиль формата : High@L4.1
Параметр CABAC формата : Да
Параметр ReFrames формата : 7 кадров
Идентификатор кодека : V_MPEG4/ISO/AVC
Продолжительность : 1 ч. 55 м.
Битрейт : 2090 Кбит/сек
Ширина : 1024 пикселя
Высота : 552 пикселя
Соотношение сторон : 1,85:1
Частота кадров : 25,000 кадров/сек
Цветовое пространство : YUV
Субдискретизация насыщенности : 4:2:0
Битовая глубина : 8 бит
Тип развёртки : Прогрессивная
Бит/(Пиксели*Кадры) : 0.148
Размер потока : 1,65 Гбайт (75%)
Заголовок : Dead Man Walking (1995)
Библиотека кодирования : x264 core 92 r1510 33d382a
Настройки программы : cabac=1 / ref=7 / deblock=1:-3:-3 / analyse=0x3:0x133 / me=umh / subme=10 / psy=1 / psy_rd=1.00:0.10 / mixed_ref=1 / me_range=64 / chroma_me=1 / trellis=2 / 8x8dct=1 / cqm=0 / deadzone=21,11 / fast_pskip=0 / chroma_qp_offset=-3 / threads=1 / sliced_threads=0 / nr=0 / decimate=1 / interlaced=0 / constrained_intra=0 / bframes=3 / b_pyramid=2 / b_adapt=2 / b_bias=0 / direct=3 / wpredb=1 / wpredp=2 / keyint=250 / keyint_min=25 / scenecut=40 / intra_refresh=0 / rc_lookahead=50 / rc=2pass / mbtree=1 / bitrate=2090 / ratetol=1.0 / qcomp=0.60 / qpmin=10 / qpmax=51 / qpstep=4 / cplxblur=20.0 / qblur=0.5 / ip_ratio=1.40 / aq=1:1.00
Язык : English
Default : Да
Forced : Нет

Аудио #1
Идентификатор : 2
Формат : AC-3
Формат/Информация : Audio Coding 3
Расширение режима : CM (complete main)
Параметр Endianness формата : Big
Идентификатор кодека : A_AC3
Продолжительность : 1 ч. 55 м.
Вид битрейта : Постоянный
Битрейт : 224 Кбит/сек
Каналы : 6 каналов
Расположение каналов : Front: L C R, Side: L R, LFE
Частота : 48,0 КГц
Битовая глубина : 16 бит
Метод сжатия : С потерями
Размер потока : 185 Мбайт (8%)
Заголовок : DVO (Inter Video)
Язык : Russian
Default : Да
Forced : Нет

Аудио #2
Идентификатор : 3
Формат : AC-3
Формат/Информация : Audio Coding 3
Профиль формата : Dolby Digital
Расширение режима : CM (complete main)
Параметр Endianness формата : Big
Идентификатор кодека : A_AC3
Продолжительность : 1 ч. 55 м.
Вид битрейта : Постоянный
Битрейт : 384 Кбит/сек
Каналы : 2 канала
Расположение каналов : Front: L R
Частота : 48,0 КГц
Битовая глубина : 16 бит
Метод сжатия : С потерями
Размер потока : 317 Мбайт (14%)
Заголовок : English
Язык : English
Default : Нет
Forced : Нет

Текст
Идентификатор : 4
Формат : UTF-8
Идентификатор кодека : S_TEXT/UTF8
Идентификатор кодека/Информация : UTF-8 Plain Text
Язык : Russian
Default : Нет
Forced : Нет
загрузка...
Правила, инструкции, FAQ!!!
Торрент  Добавлен [02 мар 2013, 14:12] Скачать торрент
Скачать торрент
[ Размер 11.47 КБ / Просмотров 10 ]

Статус  
 
Размер  2.18 ГБ
Приватный: Нет (DHT включён)
.torrent скачан  0
Как залить торрент? | Как скачать Torrent? | Как смотреть и слушать онлайн?  


     Отправить личное сообщение
   
Страница 1 из 1
Показать сообщения за:  Поле сортировки  
Начать новую тему Ответить на тему

   Похожие торренты   Автор   Ответы   Просмотры   Последнее сообщение 
В этой теме нет новых непрочитанных сообщений. Скачать торрент Проверен Мертвец идет / Dead Man Walking (1995) BDRip 1080p

в форуме 720p | 1080p, Размер: 10.55 ГБ, Здоровье: 100%

Anonymous

0
11|6

47
26

04 апр 2015, 14:07

Anonymous Перейти к последнему сообщению

В этой теме нет новых непрочитанных сообщений. Скачать торрент Проверен [iPad] Мертвец / Dead Man (Джим Джармуш / Jim Jarmusch) [1995, фэнтези, драма, вестерн, BDRip]

в форуме Фильмы для iPod, iPhone, iPad, Размер: 3.67 ГБ, Здоровье: 100%

Гость

0
10|3

34
0

12 май 2015, 00:06

Гость Перейти к последнему сообщению

В этой теме нет новых непрочитанных сообщений. Скачать торрент Засну, когда умру / I'll Sleep When I'm Dead (Майк Ходжис / Mike Hodges) [2003, триллер, драма, криминал, детектив, HDTVRip]

в форуме Триллеры, Размер: 745 МБ, Здоровье: ???%

Anonymous

0
0|1

34
0

28 апр 2014, 22:40

Anonymous Перейти к последнему сообщению

В этой теме нет новых непрочитанных сообщений. Скачать торрент Игры дьявола / Before the Devil Knows You're Dead (Сидни Люмет / Sidney Lumet) [2007, США, Великобритания, Триллер, драма, криминал, BDRip-AVC] Dub + Sub Rus + Original Eng

в форуме 720p | 1080p, Размер: 2.18 ГБ, Здоровье: 100%

Anonymous

0
19|6

26
0

16 фев 2014, 13:07

Anonymous Перейти к последнему сообщению

В этой теме нет новых непрочитанных сообщений. Скачать торрент Девять в списке мертвых / Nine Dead (Крис Шэдли / Chris Shadley) [2010 г., США, триллер, криминал, детектив, HDRip]

в форуме Триллеры, Размер: 1.74 ГБ, Здоровье: 0%

Anonymous

0
0|0

40
0

03 апр 2014, 12:45

Anonymous Перейти к последнему сообщению



Сейчас этот форум просматривают: нет зарегистрированных пользователей и гости: 4


Вы не можете начинать темы
Вы не можете отвечать на сообщения
Вы не можете редактировать свои сообщения
Вы не можете удалять свои сообщения
Вы не можете добавлять вложения

Перейти:  

!ВНИМАНИЕ!
 Ресурс не предоставляет электронные версии произведений, а занимается лишь коллекционированием и каталогизацией ссылок, присылаемых и публикуемых на форуме нашими читателями. Если вы являетесь правообладателем какого-либо представленного материала и не желаете чтобы ссылка на него находилась в нашем каталоге, свяжитесь с нами и мы незамедлительно удалим её. Файлы для обмена на трекере предоставлены пользователями сайта, и администрация не несёт ответственности за их содержание. Просьба не заливать файлы, защищенные авторскими правами, а также файлы нелегального содержания!