На всех торрентах на трекере установлена скидка на скачивание в размере 100 процентов(а).
 Возможность скачивания торрента НЕ зависит от ограничений при низком ратио, низком аплоаде, требуемом ратио или требуемом аплоаде.


Начать новую тему Ответить на тему
Статистика раздачи
Размер: 6.11 ГБ | Добавлен: 15 авг 2014, 15:20 | Скачали: 0
Сидеров: 11  [0 байт/сек]    Личеров: 1  [0 байт/сек]
Пред. тема | След. тема 

Автор
Сообщение

СообщениеДобавлено: 15 авг 2014, 15:20 

Год выпуска: 2010
Жанр: Драма
Производство: США

Описание фильма:
Джефферсон Бэйли — большой поклонник блюза, талантливый автор-исполнитель из Техаса, который прекратил свою карьеру из-за страха перед сценой. После разрыва с женой, которая изменила ему, Бэйли неохотно решает присоединиться к незнакомцу Оджи и отправиться вместе с ним в долгую поездку в Хантсвилл, город в Алабаме, где Джефферсон когда-то жил.

Режиссер: Марио Ван Пиблз
Актеры: Тэрин Мэннинг, Майкл Кларк Дункан, Киле Санчес, Люк Перри, Том Скеррит, Мелвин Ван Пиблз, Линдс Эдвардс, Джет Юргенсмейер, Джеймс Кук, Катрин МакГухан

Продолжительность: 01:31:25
Качество видео: HDTV [1080i]
Перевод: Многоголосый закадровый
Субтитры: Отсутствуют



Видеокодек: AVC/H.264
Битрейт видео: ~9071 kb/s
Размер кадра: 1920x1080
Аудиокодек: MP2, 2ch
Битрейт аудио: 192 kb/s
Сэмпл: Ссылка
Видео
Идентификатор : 224 (0xE0)
Идентификатор меню : 1 (0x1)
Формат : AVC
Формат/Информация : Advanced Video Codec
Профиль формата :
Параметр CABAC формата : Да
Параметр ReFrames формата : 3 кадра
Идентификатор кодека : 27
Продолжительность : 1 ч. 31 м.
Вид битрейта : Постоянный
Битрейт : 9071 Кбит/сек
Ширина : 1920 пикселей
Высота : 1080 пикселей
Соотношение сторон : 16:9
Частота кадров : 25,000 кадров/сек
Стандарт вещания : PAL
Цветовое пространство : YUV
Субдискретизация насыщенности : 4:2:0
Битовая глубина : 8 бит
Тип развёртки : Чересстрочная
Порядок развёртки : Верхнее поле первое
Бит/(Пиксели*Кадры) : 0.175
Размер потока : 5,68 Гбайт (93%)
Основные цвета : BT.709
Характеристики трансфера : BT.709
Коэффициенты матрицы : BT.709
Аудио
Идентификатор : 192 (0xC0)
Идентификатор меню : 1 (0x1)
Формат : MPEG Audio
Версия формата : Version 1
Профиль формата : Layer 2
Идентификатор кодека : 3
Продолжительность : 1 ч. 31 м.
Вид битрейта : Постоянный
Битрейт : 192 Кбит/сек
Каналы : 2 канала
Частота : 48,0 КГц
Метод сжатия : С потерями
Размер потока : 126 Мбайт (2%)
Скриншоты:


загрузка...
Правила, инструкции, FAQ!!!
Торрент  Добавлен [15 авг 2014, 15:20] Скачать торрент
Скачать торрент
[ Размер 31.27 КБ / Просмотров 3 ]

Статус
Проверен 
 
Размер  6.11 ГБ
Приватный: Нет (DHT включён)
.torrent скачан  0
Как залить торрент? | Как скачать Torrent? | Как смотреть и слушать онлайн?  


     Отправить личное сообщение
   
Страница 1 из 1
Показать сообщения за:  Поле сортировки  
Начать новую тему Ответить на тему

   Похожие торренты   Автор   Ответы   Просмотры   Последнее сообщение 
В этой теме нет новых непрочитанных сообщений. Скачать торрент Запретная дорога / Заповедная дорога / Reservation Road (Терри Джордж / Terry George) [2007, Германия / США, Психологическая драма, DVDRip-AVC] DVO + Sub rus + original eng

в форуме 720p | 1080p, Размер: 1.9 ГБ, Здоровье: 100%

Anonymous

0
3|3

61
1

13 фев 2014, 11:38

Anonymous Перейти к последнему сообщению

В этой теме нет новых непрочитанных сообщений. Скачать торрент Проверен Экранизированный бестселлер - Кормак Маккарти / Cormac McCarthy - Дорога / The Road [2010, rtf, fb2]

в форуме Зарубежная литература (XX и XXI век), Размер: 2.88 МБ, Здоровье: 0%

Anonymous

0
0|0

4
0

08 сен 2016, 19:32

Anonymous Перейти к последнему сообщению

В этой теме нет новых непрочитанных сообщений. Скачать торрент Проверен Goo Goo Dolls - Slide & Home Medley (Live @ America's Got Talent Season 5 Finale Results 15.09.2010) (NBC 1080i) [2010, Alternative, Rock, Post-Grunge, HDTV 1080i]

в форуме Концерты (HD-Video), Размер: 430.11 МБ, Здоровье: 100%

Anonymous

0
1|0

0
0

23 окт 2016, 11:03

Anonymous Перейти к последнему сообщению

В этой теме нет новых непрочитанных сообщений. Скачать торрент Проверен (Melodic Power Metal) Last Bastion - Road To Redemption - 2014, MP3, 320 kbps

в форуме Heavy, Power, Progressive (Metal), Размер: 130.81 МБ, Здоровье: 0%

Anonymous

0
0|0

0
0

09 окт 2016, 09:20

Anonymous Перейти к последнему сообщению

В этой теме нет новых непрочитанных сообщений. Скачать торрент Проверен (Southern Rock) The Walter Michaels Band - Road To Redemption - 2007, MP3, 320 kbps

в форуме Classic Rock & Hard Rock, Размер: 161.27 МБ, Здоровье: 0%

Anonymous

0
0|0

0
0

13 ноя 2016, 13:25

Anonymous Перейти к последнему сообщению



Сейчас этот форум просматривают: нет зарегистрированных пользователей и гости: 5


Вы не можете начинать темы
Вы не можете отвечать на сообщения
Вы не можете редактировать свои сообщения
Вы не можете удалять свои сообщения
Вы не можете добавлять вложения

Перейти:  

!ВНИМАНИЕ!
 Ресурс не предоставляет электронные версии произведений, а занимается лишь коллекционированием и каталогизацией ссылок, присылаемых и публикуемых на форуме нашими читателями. Если вы являетесь правообладателем какого-либо представленного материала и не желаете чтобы ссылка на него находилась в нашем каталоге, свяжитесь с нами и мы незамедлительно удалим её. Файлы для обмена на трекере предоставлены пользователями сайта, и администрация не несёт ответственности за их содержание. Просьба не заливать файлы, защищенные авторскими правами, а также файлы нелегального содержания!