На всех торрентах на трекере установлена скидка на скачивание в размере 100 процентов(а).
 Возможность скачивания торрента НЕ зависит от ограничений при низком ратио, низком аплоаде, требуемом ратио или требуемом аплоаде.


Начать новую тему Ответить на тему
Статистика раздачи
Размер: 5.84 ГБ | Добавлен: 13 авг 2014, 06:27 | Скачали: 60
Сидеров: 39  [0 байт/сек]    Личеров: 6  [0 байт/сек]
Пред. тема | След. тема 

Автор
Сообщение

СообщениеДобавлено: 13 авг 2014, 06:27 

Название: Эвита
Оригинальное название: Evita
Год выхода: 1996
Жанр: Мюзикл, триллер, драма, биография, история, экранизация
Режиссер: Алан Паркер

В ролях: Мадонна, Антонио Бандерас, Джонатан Прайс, Джимми Наил, Виктория Сус, Джулиан Литман, Ольга Мередиз, Лаура Паллас, Джулия Уорсли, Мария Лухан Хидальго, Сервандо Вильямиль, Андреа Корр, Питер Поликарпу, Гари Брукер, Адрия Кольядо

О фильме:
Фильм с Мадонной и Антонио Бандерасом в главных ролях поставлен по музыкальной пьесе «Эвита» на слова Тима Райса и музыку Эндрю Ллойда Уэббера, поставленной на Бродвее. Райсу и Уэбберу не удалось достичь вершин их самой популярной рок-оперы «Иисус Христос Суперзвезда», но тем не менее любители музыки и поклонники таланта режиссера Алана Паркера смогут получить удовольствие от истории о бедной девушки Эвы Дуарте, ставшей женой президента Аргентины Хуана Перона, величайшей личностью в истории страны и духовным лидером нации.



Страна: США
Студия: Cinergi Pictures Entertainment Inc., Dirty Hands Productions, Hollywood Pictures, Summit Entertainment
Продолжительность: 02:14:15
Перевод: Профессиональный многоголосый


Кодек: MPEG-4 AVC
Качество: BDRip 720p
Видео: 4500 Кбит/с, 1280x536
Звук: Русский (AC3, 2 ch, 192 Кбит/с), английский (DTS, 6 ch, 1509 Кбит/с)
Субтитры: Русские, английские
Рип от StarbirS
Релиз группы NovaLan

Аудио №1: Russian: 48 kHz, AC3, 2 (L,R) ch, ~192.00 kbps avg - Профессиональный многоголосый (Домашний)
Аудио №2: English: 48 kHz, DTS, 3/2 (L,C,R,l,r) + LFE ch, ~1509.00 kbps avg - Оригинал

Субтитры: Русские, английские

Спасибо Sergei7721 за помощь в подготовке релиза

Формат : Matroska
Версия формата : Version 4 / Version 2
Размер файла : 5,84 Гбайт
Продолжительность : 2 ч. 14 м.
Общий поток : 6202 Кбит/сек
Название фильма : Evita.1996.x264.P.BDRip.(720p).NovaLan
Дата кодирования : UTC 2014-08-12 20:17:26
Программа кодирования : mkvmerge v7.1.0 ('Good Love') 64bit built on Jul 27 2014 13:06:55
Библиотека кодирования : libebml v1.3.0 + libmatroska v1.4.1
DURATION : 02:14:45.835000000
NUMBER_OF_FRAMES : 758047
NUMBER_OF_BYTES : 1525191820
_STATISTICS_WRITING_APP : mkvmerge v7.1.0 ('Good Love') 64bit built on Jul 27 2014 13:06:55
_STATISTICS_WRITING_DATE_UTC : 2014-08-12 20:17:26
_STATISTICS_TAGS : BPS DURATION NUMBER_OF_FRAMES NUMBER_OF_BYTES

Видео
Идентификатор : 1
Формат : AVC
Формат/Информация : Advanced Video Codec
Профиль формата : High@L4.1
Параметр CABAC формата : Да
Параметр ReFrames формата : 9 кадров
Идентификатор кодека : V_MPEG4/ISO/AVC
Продолжительность : 2 ч. 14 м.
Битрейт : 4500 Кбит/сек
Ширина : 1280 пикселей
Высота : 536 пикселей
Соотношение сторон : 2,40:1
Режим частоты кадров : Постоянный
Частота кадров : 23,976 кадра/сек
Цветовое пространство : YUV
Субдискретизация насыщенности : 4:2:0
Битовая глубина : 8 бит
Тип развёртки : Прогрессивная
Бит/(Пиксели*Кадры) : 0.274
Размер потока : 4,12 Гбайт (71%)
Заголовок : Evita.1996.x264.P.BDRip.(720p).by.StarbirS
Библиотека кодирования : x264 core 133 r2334 a3ac64b
Настройки программы : cabac=1 / ref=9 / deblock=1:-3:-3 / analyse=0x3:0x133 / me=umh / subme=10 / psy=1 / psy_rd=1.00:0.00 / mixed_ref=1 / me_range=48 / chroma_me=1 / trellis=2 / 8x8dct=1 / cqm=0 / deadzone=21,11 / fast_pskip=0 / chroma_qp_offset=1 / threads=12 / lookahead_threads=2 / sliced_threads=0 / nr=0 / decimate=1 / interlaced=0 / bluray_compat=0 / constrained_intra=0 / bframes=8 / b_pyramid=2 / b_adapt=2 / b_bias=0 / direct=3 / weightb=1 / open_gop=1 / weightp=2 / keyint=250 / keyint_min=23 / scenecut=40 / intra_refresh=0 / rc=2pass / mbtree=0 / bitrate=4500 / ratetol=1.0 / qcomp=0.60 / qpmin=0 / qpmax=69 / qpstep=4 / cplxblur=20.0 / qblur=0.5 / ip_ratio=1.40 / pb_ratio=1.30 / aq=1:2.00
Язык : English
Default : Да
Forced : Нет
Основные цвета : BT.709
DURATION : 02:14:45.841000000
NUMBER_OF_FRAMES : 193866
NUMBER_OF_BYTES : 4546570369
_STATISTICS_WRITING_APP : mkvmerge v7.1.0 ('Good Love') 64bit built on Jul 27 2014 13:06:55
_STATISTICS_WRITING_DATE_UTC : 2014-08-12 20:17:26
_STATISTICS_TAGS : BPS DURATION NUMBER_OF_FRAMES NUMBER_OF_BYTES

Аудио #1
Идентификатор : 2
Формат : AC-3
Формат/Информация : Audio Coding 3
Расширение режима : CM (complete main)
Параметр Endianness формата : Big
Идентификатор кодека : A_AC3
Продолжительность : 2 ч. 14 м.
Вид битрейта : Постоянный
Битрейт : 192 Кбит/сек
Каналы : 2 канала
Расположение каналов : Front: L R
Частота : 48,0 КГц
Битовая глубина : 16 бит
Метод сжатия : С потерями
Размер потока : 185 Мбайт (3%)
Заголовок : Профессиональный многоголосый (Домашний)
Язык : Russian
Default : Да
Forced : Нет

Аудио #2
Идентификатор : 5
Формат : DTS
Формат/Информация : Digital Theater Systems
Режим : 16
Параметр Endianness формата : Big
Идентификатор кодека : A_DTS
Продолжительность : 2 ч. 14 м.
Вид битрейта : Постоянный
Битрейт : 1509 Кбит/сек
Каналы : 6 каналов
Расположение каналов : Front: L C R, Side: L R, LFE
Частота : 48,0 КГц
Битовая глубина : 24 бит
Метод сжатия : С потерями
Размер потока : 1,42 Гбайт (24%)
Заголовок : Оригинал
Язык : English
Default : Нет
Forced : Нет

Текст #1
Идентификатор : 3
Формат : UTF-8
Идентификатор кодека : S_TEXT/UTF8
Идентификатор кодека/Информация : UTF-8 Plain Text
Язык : Russian
Default : Да
Forced : Нет

Текст #2
Идентификатор : 4
Формат : UTF-8
Идентификатор кодека : S_TEXT/UTF8
Идентификатор кодека/Информация : UTF-8 Plain Text
Язык : English
Default : Нет
Forced : Нет

Меню
00:00:00.000 : en:Chapter 01
00:00:14.806 : en:Chapter 02
00:06:14.457 : en:Chapter 03
00:08:37.850 : en:Chapter 04
00:16:00.417 : en:Chapter 05
00:18:00.370 : en:Chapter 06
00:23:22.067 : en:Chapter 07
00:27:58.343 : en:Chapter 08
00:32:16.768 : en:Chapter 09
00:37:03.054 : en:Chapter 10
00:41:27.193 : en:Chapter 11
00:44:53.857 : en:Chapter 12
00:50:09.256 : en:Chapter 13
00:52:07.290 : en:Chapter 14
00:57:28.611 : en:Chapter 15
01:09:24.743 : en:Chapter 16
01:12:25.382 : en:Chapter 17
01:17:05.245 : en:Chapter 18
01:19:38.815 : en:Chapter 19
01:23:21.788 : en:Chapter 20
01:25:50.603 : en:Chapter 21
01:30:55.825 : en:Chapter 22
01:33:57.131 : en:Chapter 23
01:37:55.160 : en:Chapter 24
01:39:44.812 : en:Chapter 25
01:41:22.868 : en:Chapter 26
01:47:51.965 : en:Chapter 27
01:51:58.169 : en:Chapter 28
01:53:39.646 : en:Chapter 29
01:56:33.736 : en:Chapter 30
02:01:11.055 : en:Chapter 31
02:03:18.307 : en:Chapter 32
02:08:34.957 : en:Chapter 33




Релиз от:
загрузка...
Правила, инструкции, FAQ!!!
Торрент  Добавлен [13 авг 2014, 06:27] Скачать торрент
Скачать торрент
[ Размер 29.81 КБ / Просмотров 16 ]

Статус
Проверен 
 
Размер  5.84 ГБ
Приватный: Нет (DHT включён)
.torrent скачан  60
Как залить торрент? | Как скачать Torrent? | Как смотреть и слушать онлайн?  


     Отправить личное сообщение
   
Страница 1 из 1
Показать сообщения за:  Поле сортировки  
Начать новую тему Ответить на тему

   Похожие торренты   Автор   Ответы   Просмотры   Последнее сообщение 
В этой теме нет новых непрочитанных сообщений. Скачать торрент Проверен Эвита / Evita (1996) HDRip

в форуме Триллеры, Размер: 2.19 ГБ, Здоровье: 26%

Гость

0
4|15

184
0

14 окт 2015, 19:27

Гость Перейти к последнему сообщению

В этой теме нет новых непрочитанных сообщений. Скачать торрент Проверен Флиппер / Flipper (1996) BDRip 720p | P, P2, A

в форуме 720p | 1080p, Размер: 4.36 ГБ, Здоровье: 59%

Anonymous

0
29|49

130
19

26 июл 2015, 22:28

Anonymous Перейти к последнему сообщению

В этой теме нет новых непрочитанных сообщений. Скачать торрент Проверен Стриптиз / Striptease (1996) BDRip 720p | P2, P, A

в форуме 720p | 1080p, Размер: 6.86 ГБ, Здоровье: 93%

Гость

0
31|33

83
66

05 июн 2015, 22:51

Гость Перейти к последнему сообщению

В этой теме нет новых непрочитанных сообщений. Скачать торрент Проверен Стиратель / Eraser (1996) BDRip 720p

в форуме 720p | 1080p, Размер: 2.9 ГБ, Здоровье: 100%

Anonymous

0
27|13

31
458

18 сен 2014, 12:48

Anonymous Перейти к последнему сообщению

В этой теме нет новых непрочитанных сообщений. Скачать торрент Проверен Скала / The Rock (1996) BDRip 720p

в форуме 720p | 1080p, Размер: 4.35 ГБ, Здоровье: 100%

Anonymous

0
20|0

27
271

22 май 2014, 18:34

Anonymous Перейти к последнему сообщению



Сейчас этот форум просматривают: нет зарегистрированных пользователей и гости: 2


Вы не можете начинать темы
Вы не можете отвечать на сообщения
Вы не можете редактировать свои сообщения
Вы не можете удалять свои сообщения
Вы не можете добавлять вложения

Перейти:  

!ВНИМАНИЕ!
 Ресурс не предоставляет электронные версии произведений, а занимается лишь коллекционированием и каталогизацией ссылок, присылаемых и публикуемых на форуме нашими читателями. Если вы являетесь правообладателем какого-либо представленного материала и не желаете чтобы ссылка на него находилась в нашем каталоге, свяжитесь с нами и мы незамедлительно удалим её. Файлы для обмена на трекере предоставлены пользователями сайта, и администрация не несёт ответственности за их содержание. Просьба не заливать файлы, защищенные авторскими правами, а также файлы нелегального содержания!