На всех торрентах на трекере установлена скидка на скачивание в размере 100 процентов(а).
 Возможность скачивания торрента НЕ зависит от ограничений при низком ратио, низком аплоаде, требуемом ратио или требуемом аплоаде.


Начать новую тему Ответить на тему
Статистика раздачи
Размер: 8.19 ГБ | Добавлен: 12 авг 2014, 23:32 | Скачали: 1
Сидеров: 23  [0 байт/сек]    Личеров: 1  [0 байт/сек]
Пред. тема | След. тема 

Автор
Сообщение

СообщениеДобавлено: 12 авг 2014, 23:32 

Русское название: Доброе утро, Вьетнам!
Оригинальное название: Good Morning, Vietnam!
Год выпуска: 1987
Жанр: Драма, Комедия, Военный

Описание фильма:
Вьетнам 1965 года - пока еще безмятежный курорт с жарким солнцем, красивыми девушками и привольной службой. Но однажды утром раздался оглушительный взрыв хохота, когда в эфир армейской радио станции впервые вышел новый ведущий Эдриан Кронэр. Он сразу стал любимцем публики и врагом высокого начальства. И действительно, этот юморист своими шутками и непредсказуемым поведением представляет настоящую угрозу для воинской дисциплины. Но когда в радиоприемниках раздается его знаменитое приветствие "Доброе утро, Вьетнам!", кажется, что в этой веселой стране никогда не наступит ночь.

Режиссер: Барри Левинсон / Barry Levinson
Актеры: Робин Уильямс / Robin Williams, Форест Уитакер / Forest Whitaker, Танг Тан Тран / Tung Thanh Tran, Чинтара Сукапатана / Chintara Sukapatana, Бруно Керби / Bruno Kirby, Роберт Вул / Robert Wuhl

Продолжительность: 02:01:38
Перевод: Авторский одноголосый закадровый (Алексей Михалев, Юрий Живов)
Оригинальный аудиопоток: английский
Субтитры: английские(SDH), французские(полные, форсированные)
Дорога с переводом Михалева (VHS) любезно предоставлена "великим и могучим" Серый75. За дорожку с переводом Живова, сделанную с "чистого" голоса, большое спасибо dsk71 с .




Рип от EbP!

Источник/Качество: BDRip [720p]
Контейнер: MKV
Видео кодек: MPEG-4 AVC/H.264
Аудио кодек: AC-3
Видео: 1280x694 at 23,976 fps, , ~7980 kbps avg
Аудио#1: 48 kHz, AC3, 2/0 (L,R) ch, ~192.00 kbps avg - Михалев
Аудио#2: 48 kHz, AC3, 3/2 (L,C,R,l,r) + LFE ch, ~640.00 kbps avg - Живов
Аудио#3: 48 kHz, AC3, 3/2 (L,C,R,l,r) + LFE ch, ~640.00 kbps avg - Английская
Формат субтитров: softsub (SRT)
Британская академия, 1989 год
Номинации (2):

Лучшая мужская роль (Робин Уильямс)
Лучший звук

Оскар, 1988 год
Номинации (1):

Лучшая мужская роль (Робин Уильямс)

Золотой глобус, 1988 год
Победитель (1):

Лучшая мужская роль (комедия или мюзикл) (Робин Уильямс)
Общее
Уникальный идентификатор : 200173070739082224729475051591322606037 (0x9697EE5C8BAE93298CCFB7E1088899D5)
Полное имя : D:\Мои документы\Кинофильмы\Скачано\Good.Morning.Vietnam.1987.720p.BluRay.mkv
Формат : Matroska
Версия формата : Version 2
Размер файла : 8,19 Гбайт
Продолжительность : 2 ч. 1 м.
Общий поток : 9644 Кбит/сек
Дата кодирования : UTC 2012-06-15 09:36:24
Программа кодирования : mkvmerge v4.9.1 ('Ich will') сборка от Jul 11 2011 23:53:15
Библиотека кодирования : libebml v1.2.1 + libmatroska v1.1.1

Видео
Идентификатор : 1
Формат : AVC
Формат/Информация : Advanced Video Codec
Профиль формата :
Параметр CABAC формата : Да
Параметр ReFrames формата : 9 кадров
Режим смешивания : Header stripping
Идентификатор кодека : V_MPEG4/ISO/AVC
Продолжительность : 2 ч. 1 м.
Битрейт : 7980 Кбит/сек
Ширина : 1280 пикселей
Высота : 694 пикселя
Соотношение сторон : 1,85:1
Частота кадров : 23,976 кадра/сек
Цветовое пространство : YUV
Субдискретизация насыщенности : 4:2:0
Битовая глубина : 8 бит
Тип развёртки : Прогрессивная
Бит/(Пиксели*Кадры) : 0.375
Размер потока : 6,78 Гбайт (83%)
Заголовок : Encode EbP
Библиотека кодирования : x264 core 120 r2146 bcd41db
Настройки программы : cabac=1 / ref=9 / deblock=1:-3:-3 / analyse=0x3:0x113 / me=tesa / subme=11 / psy=1 / psy_rd=1.10:0.00 / mixed_ref=1 / me_range=16 / chroma_me=1 / trellis=2 / 8x8dct=1 / cqm=0 / deadzone=21,11 / fast_pskip=0 / chroma_qp_offset=-2 / threads=6 / sliced_threads=0 / nr=0 / decimate=0 / interlaced=0 / bluray_compat=0 / constrained_intra=0 / bframes=9 / b_pyramid=2 / b_adapt=2 / b_bias=0 / direct=3 / weightb=1 / open_gop=0 / weightp=2 / keyint=250 / keyint_min=23 / scenecut=40 / intra_refresh=0 / rc=crf / mbtree=0 / crf=17.5 / qcomp=0.70 / qpmin=0 / qpmax=69 / qpstep=4 / ip_ratio=1.40 / pb_ratio=1.30 / aq=1:0.65
Язык : English
Default : Да
Forced : Нет

Аудио #1
Идентификатор : 2
Формат : AC-3
Формат/Информация : Audio Coding 3
Расширение режима : CM (complete main)
Параметр Endianness формата : Big
Режим смешивания : Header stripping
Идентификатор кодека : A_AC3
Продолжительность : 2 ч. 1 м.
Вид битрейта : Постоянный
Битрейт : 192 Кбит/сек
Каналы : 2 канала
Расположение каналов : Front: L R
Частота : 48,0 КГц
Битовая глубина : 16 бит
Метод сжатия : С потерями
Размер потока : 167 Мбайт (2%)
Заголовок : Михалёв новый
Язык : Russian
Default : Да
Forced : Нет

Аудио #2
Идентификатор : 3
Формат : AC-3
Формат/Информация : Audio Coding 3
Расширение режима : CM (complete main)
Параметр Endianness формата : Big
Режим смешивания : Header stripping
Идентификатор кодека : A_AC3
Продолжительность : 2 ч. 1 м.
Вид битрейта : Постоянный
Битрейт : 640 Кбит/сек
Каналы : 6 каналов
Расположение каналов : Front: L C R, Side: L R, LFE
Частота : 48,0 КГц
Битовая глубина : 16 бит
Метод сжатия : С потерями
Размер потока : 557 Мбайт (7%)
Заголовок : AVO (Ю.Живов)
Язык : Russian
Default : Нет
Forced : Нет

Аудио #3
Идентификатор : 4
Формат : AC-3
Формат/Информация : Audio Coding 3
Расширение режима : CM (complete main)
Параметр Endianness формата : Big
Режим смешивания : Header stripping
Идентификатор кодека : A_AC3
Продолжительность : 2 ч. 1 м.
Вид битрейта : Постоянный
Битрейт : 640 Кбит/сек
Каналы : 6 каналов
Расположение каналов : Front: L C R, Side: L R, LFE
Частота : 48,0 КГц
Битовая глубина : 16 бит
Метод сжатия : С потерями
Размер потока : 557 Мбайт (7%)
Заголовок : DD 5.1 English @ 640 kbps
Язык : English
Default : Нет
Forced : Нет

Текст #1
Идентификатор : 5
Формат : UTF-8
Идентификатор кодека : S_TEXT/UTF8
Идентификатор кодека/Информация : UTF-8 Plain Text
Заголовок : English SDH
Язык : English
Default : Нет
Forced : Нет

Текст #2
Идентификатор : 6
Формат : UTF-8
Идентификатор кодека : S_TEXT/UTF8
Идентификатор кодека/Информация : UTF-8 Plain Text
Заголовок : French
Язык : French
Default : Да
Forced : Нет

Текст #3
Идентификатор : 7
Формат : UTF-8
Идентификатор кодека : S_TEXT/UTF8
Идентификатор кодека/Информация : UTF-8 Plain Text
Заголовок : French Forced
Язык : French
Default : Нет
Forced : Нет

Меню
00:00:00.000 : :Opening Titles/Welcome to Saigon
00:08:56.411 : :Unauthorized programming
00:23:21.817 : :English class
00:32:51.720 : :Brawl at Jimmy Wha's
00:40:03.401 : :A date with Trinh
00:52:21.430 : :Unofficial news
01:07:00.308 : :Polkas or no polkas
01:18:20.029 : :Reluctantly reinstated
01:30:37.932 : :Friends and enemies
01:48:43.016 : :Goodbye, Vietnam/End Credits


загрузка...
Правила, инструкции, FAQ!!!
Торрент  Добавлен [12 авг 2014, 23:32] Скачать торрент
Скачать торрент
[ Размер 21.35 КБ / Просмотров 21 ]

Статус
Проверен 
 
Размер  8.19 ГБ
Приватный: Нет (DHT включён)
.torrent скачан  1
Как залить торрент? | Как скачать Torrent? | Как смотреть и слушать онлайн?  


     Отправить личное сообщение
   
Страница 1 из 1
Показать сообщения за:  Поле сортировки  
Начать новую тему Ответить на тему

   Похожие торренты   Автор   Ответы   Просмотры   Последнее сообщение 
В этой теме нет новых непрочитанных сообщений. Скачать торрент Доброе утро / Morning Glory (Роджер Мишелл / Roger Michell) [2010 г., драма, мелодрама, комедия, BDRip-AVC] Dub

в форуме Драмы, Мелодрамы, Размер: 1.46 ГБ, Здоровье: 0%

Anonymous

0
0|0

26
0

02 апр 2014, 12:04

Anonymous Перейти к последнему сообщению

В этой теме нет новых непрочитанных сообщений. Скачать торрент Доброе утро / Morning Glory (Роджер Мичелл / Roger Michell) [2010, драма, мелодрама, комедия, BDRip] Dub + Original + Subs (Rus, RusF, Eng)

в форуме Драмы, Мелодрамы, Размер: 2.19 ГБ, Здоровье: 0%

Anonymous

0
0|0

38
0

14 фев 2014, 07:45

Anonymous Перейти к последнему сообщению

В этой теме нет новых непрочитанных сообщений. Скачать торрент Доброе утро / Morning Glory (Роджер Мичелл / Roger Michell) [2010, США, драма, мелодрама, комедия, HDRip] Dub

в форуме Драмы, Мелодрамы, Размер: 1.45 ГБ, Здоровье: 0%

Anonymous

0
0|0

29
0

11 фев 2014, 09:18

Anonymous Перейти к последнему сообщению

В этой теме нет новых непрочитанных сообщений. Скачать торрент Проверен Daniel Hoyer - Culinary Vietnam / Кулинарный Вьетнам [2009, ePub, ENG]

в форуме Кулинария, Размер: 7.07 МБ, Здоровье: 0%

Anonymous

0
0|0

2
0

19 окт 2016, 22:19

Anonymous Перейти к последнему сообщению

В этой теме нет новых непрочитанных сообщений. Скачать торрент Проверен Бархатное утро / Some Velvet Morning (2013) WEB-DL 720p | P2

в форуме 720p | 1080p, Размер: 2.3 ГБ, Здоровье: 100%

Anonymous

0
69|33

33
128

21 фев 2015, 10:51

Anonymous Перейти к последнему сообщению



Сейчас этот форум просматривают: нет зарегистрированных пользователей и гости: 1


Вы не можете начинать темы
Вы не можете отвечать на сообщения
Вы не можете редактировать свои сообщения
Вы не можете удалять свои сообщения
Вы не можете добавлять вложения

Перейти:  

!ВНИМАНИЕ!
 Ресурс не предоставляет электронные версии произведений, а занимается лишь коллекционированием и каталогизацией ссылок, присылаемых и публикуемых на форуме нашими читателями. Если вы являетесь правообладателем какого-либо представленного материала и не желаете чтобы ссылка на него находилась в нашем каталоге, свяжитесь с нами и мы незамедлительно удалим её. Файлы для обмена на трекере предоставлены пользователями сайта, и администрация не несёт ответственности за их содержание. Просьба не заливать файлы, защищенные авторскими правами, а также файлы нелегального содержания!