На всех торрентах на трекере установлена скидка на скачивание в размере 100 процентов(а).
 Возможность скачивания торрента НЕ зависит от ограничений при низком ратио, низком аплоаде, требуемом ратио или требуемом аплоаде.


Начать новую тему Ответить на тему
Статистика раздачи
Размер: 3.88 ГБ | Добавлен: 28 фев 2013, 12:54 | Скачали: 0
Сидеров: 0  [0 байт/сек]    Личеров: 0  [0 байт/сек]
Пред. тема | След. тема 

Автор
Сообщение

СообщениеДобавлено: 28 фев 2013, 12:54 

Как украсть небоскреб / Tower Heist


Год выпуска: 2011
Страна: США
Жанр: Комедия, криминал
Продолжительность: 01:44:33
Перевод: Профессиональный (полное дублирование)
Режиссер: Бретт Рэтнер / Brett Ratner

В фильме снимались: Бен Стиллер (Ben Stiller), Эдди Мёрфи (Eddie Murphy), Кейси Аффлек (Casey Affleck), Алан Алда (Alan Alda), Мэттью Бродерик (Matthew Broderick), Теа Леони (Téa Leoni), Майкл Пенья (Michael Peña), Габури «Гэбби» Сидибе (Gabourey 'Gabby' Sidibe), Стефен Хендерсон (Stephen Henderson), Джадд Хёрш (Judd Hirsch).

Вкратце: Джошу Ковачу не повезло — его поимел злобный финансист, живущий в роскошных аппартаментах на верхнем этаже небоскреба. Чтобы вернуть деньги, Джош с друзьями решается на грандиозную кражу со взломом. Но одним им это не под силу, и они обращаются к матерому преступнику. Дело за малым — шесть новоявленных друзей Джоушена должны пробраться в пентхаус и отыскать 200 миллионов долларов.



Качество: BDRip-AVC источник (CHDBits)
Формат: MKV
Видео кодек: H.264
Аудио кодек: AC3
Видео: 1152x480 (2.40:1); 4497 Kbps; 23,976 fps; 0.339 bpp
Аудио: 48 kHz, AC3, 3/2 (L,C,R,l,r) + LFE ch, ~384.00 kbps avg / Dub
Аудио: 48 kHz, AC3 Dolby Digital, 3/2 (L,C,R,l,r) + LFE ch, ~448.00 kbps avg / Eng
Субтитры: English
Сохранены оригинальные чаптеры как на Blu-ray.

Mi
General
Unique ID : 218233182668307360960558351488754509177 (0xA42E2EA076B743F38099FDD63E05E579)
Complete name : D:\Tower.Heist.2011.BDrip-AVC.Froloff777.mkv
Format : Matroska
File size : 3.88 GiB
Duration : 1h 44mn
Overall bit rate : 5 310 Kbps
Encoded date : UTC 2012-03-03 04:40:42
Writing application : mkvmerge v4.5.0 ('Speed of Light') сборка от Feb 1 2011 02:10:32
Writing library : libebml v1.2.0 + libmatroska v1.1.0[br][/br]Video
ID : 1
Format : AVC
Format/Info : Advanced Video Codec
Format profile : High@L4.1
Format settings, CABAC : Yes
Format settings, ReFrames : 9 frames
Codec ID : V_MPEG4/ISO/AVC
Duration : 1h 44mn
Bit rate : 4 497 Kbps
Width : 1 152 pixels
Height : 480 pixels
Display aspect ratio : 2.40:1
Frame rate : 23.976 fps
Color space : YUV
Chroma subsampling : 4:2:0
Bit depth : 8 bits
Scan type : Progressive
Bits/(Pixel*Frame) : 0.339
Stream size : 3.19 GiB (82%)
Writing library : x264 core 118 r2085 8a62835
Encoding settings : cabac=1 / ref=9 / deblock=1:-2:-2 / analyse=0x3:0x113 / me=umh / subme=11 / psy=1 / psy_rd=0.80:0.03 / mixed_ref=1 / me_range=32 / chroma_me=1 / trellis=2 / 8x8dct=1 / cqm=0 / deadzone=21,11 / fast_pskip=0 / chroma_qp_offset=-3 / threads=3 / sliced_threads=0 / nr=0 / decimate=0 / interlaced=0 / bluray_compat=0 / constrained_intra=0 / bframes=9 / b_pyramid=2 / b_adapt=2 / b_bias=0 / direct=3 / weightb=1 / open_gop=0 / weightp=2 / keyint=250 / keyint_min=23 / scenecut=40 / intra_refresh=0 / rc_lookahead=60 / rc=2pass / mbtree=0 / bitrate=4497 / ratetol=1.0 / qcomp=0.70 / qpmin=0 / qpmax=69 / qpstep=4 / cplxblur=20.0 / qblur=0.5 / vbv_maxrate=50000 / vbv_bufsize=62500 / nal_hrd=none / ip_ratio=1.40 / pb_ratio=1.30 / aq=2:0.70
Language : English[br][/br]Audio #1
ID : 2
Format : AC-3
Format/Info : Audio Coding 3
Mode extension : CM (complete main)
Codec ID : A_AC3
Duration : 1h 44mn
Bit rate mode : Constant
Bit rate : 384 Kbps
Channel(s) : 6 channels
Channel positions : Front: L C R, Side: L R, LFE
Sampling rate : 48.0 KHz
Bit depth : 16 bits
Compression mode : Lossy
Stream size : 287 MiB (7%)
Title : Dub
Language : Russian[br][/br]Audio #2
ID : 3
Format : AC-3
Format/Info : Audio Coding 3
Mode extension : CM (complete main)
Codec ID : A_AC3
Duration : 1h 44mn
Bit rate mode : Constant
Bit rate : 448 Kbps
Channel(s) : 6 channels
Channel positions : Front: L C R, Side: L R, LFE
Sampling rate : 48.0 KHz
Bit depth : 16 bits
Compression mode : Lossy
Stream size : 335 MiB (8%)
Language : English[br][/br]Text
ID : 4
Format : UTF-8
Codec ID : S_TEXT/UTF8
Codec ID/Info : UTF-8 Plain Text
Language : English[br][/br]Menu
00:00:00.000 : :(Глава 1)
00:03:23.203 : :(Глава 2)
00:09:20.810 : :(Глава 3)
00:14:09.598 : :(Глава 4)
00:19:13.777 : :(Глава 5)
00:23:41.503 : :(Глава 6)
00:27:16.468 : :(Глава 7)
00:32:05.548 : :(Глава 8)
00:38:16.377 : :(Глава 9)
00:43:57.259 : :(Глава 10)
00:49:20.540 : :(Глава 11)
00:53:42.594 : :(Глава 12)
00:56:58.581 : :(Глава 13)
01:01:46.994 : :(Глава 14)
01:06:22.687 : :(Глава 15)
01:11:30.160 : :(Глава 16)
01:17:13.503 : :(Глава 17)
01:23:09.567 : :(Глава 18)
01:31:52.256 : :(Глава 19)
01:38:42.124 : :(Глава 20)
01:44:33.058 : :(Глава 21)
x264
x264 [info]: frame I:1536 Avg QP:15.78 size:118578 PSNR Mean Y:46.90 U:49.34 V:49.47 Avg:47.57 Global:47.15
x264 [info]: frame P:31677 Avg QP:18.53 size: 40106 PSNR Mean Y:45.54 U:48.42 V:48.39 Avg:46.14 Global:45.40
x264 [info]: frame B:117195 Avg QP:19.93 size: 17599 PSNR Mean Y:44.30 U:47.19 V:47.49 Avg:45.07 Global:44.52
x264 [info]: consecutive B-frames: 2.6% 2.0% 6.9% 16.6% 16.8% 41.3% 7.3% 3.6% 1.4% 1.3%
x264 [info]: mb I I16..4: 13.6% 62.7% 23.7%
x264 [info]: mb P I16..4: 0.5% 13.2% 1.5% P16..4: 29.1% 35.3% 14.4% 0.0% 0.0% skip: 6.0%
x264 [info]: mb B I16..4: 0.0% 2.5% 0.1% B16..8: 32.5% 23.0% 5.1% direct: 8.1% skip:28.7% L0:41.2% L1:39.1% BI:19.8%
x264 [info]: 8x8 transform intra:85.4% inter:56.2%
x264 [info]: direct mvs spatial:98.9% temporal:1.1%
x264 [info]: coded y,uvDC,uvAC intra: 96.2% 97.0% 92.8% inter: 33.8% 36.6% 22.6%
x264 [info]: i16 v,h,dc,p: 14% 7% 26% 53%
x264 [info]: i8 v,h,dc,ddl,ddr,vr,hd,vl,hu: 11% 9% 12% 9% 12% 12% 12% 11% 12%
x264 [info]: i4 v,h,dc,ddl,ddr,vr,hd,vl,hu: 12% 10% 6% 9% 15% 14% 13% 11% 12%
x264 [info]: i8c dc,h,v,p: 56% 13% 13% 18%
x264 [info]: Weighted P-Frames: Y:2.4% UV:0.7%
x264 [info]: ref P L0: 44.4% 9.9% 20.7% 6.4% 6.3% 3.8% 4.0% 2.0% 2.3% 0.3% 0.0%
x264 [info]: ref B L0: 71.8% 13.6% 5.8% 3.2% 2.2% 2.0% 1.0% 0.4%
x264 [info]: ref B L1: 92.4% 7.6%
x264 [info]: SSIM Mean Y:0.9786692 (16.710db)
x264 [info]: PSNR Mean Y:44.585 U:47.471 V:47.701 Avg:45.324 Global:44.711 kb/s:4482.55


[/center]
загрузка...
Правила, инструкции, FAQ!!!
Торрент  Добавлен [28 фев 2013, 12:54] Скачать торрент
Скачать торрент
[ Размер 19.99 КБ / Просмотров 16 ]

Статус  
 
Размер  3.88 ГБ
Приватный: Нет (DHT включён)
.torrent скачан  0
Как залить торрент? | Как скачать Torrent? | Как смотреть и слушать онлайн?  


     Отправить личное сообщение
   
Страница 1 из 1
Показать сообщения за:  Поле сортировки  
Начать новую тему Ответить на тему

   Похожие торренты   Автор   Ответы   Просмотры   Последнее сообщение 
В этой теме нет новых непрочитанных сообщений. Скачать торрент Проверен [iPad] Как украсть небоскреб / Tower Heist (Бретт Рэтнер / Brett Ratner ) [2011, США, Боевик, комедия, криминал, BDRip, SD (576p)] DUB + Original + sub (rus, eng)

в форуме Фильмы для iPod, iPhone, iPad, Размер: 1.8 ГБ, Здоровье: 100%

Гость

0
20|7

28
0

11 май 2015, 01:39

Гость Перейти к последнему сообщению

В этой теме нет новых непрочитанных сообщений. Скачать торрент Проверен [iPhone] Как украсть небоскреб / Tower Heist (Бретт Рэтнер / Bratt Ratner) [2011, комедия, криминал, BDRip, 720x320] Rus + Eng + Eng Subs

в форуме Фильмы для iPod, iPhone, iPad, Размер: 1.07 ГБ, Здоровье: 100%

Гость

0
5|2

35
0

18 май 2015, 10:37

Гость Перейти к последнему сообщению

В этой теме нет новых непрочитанных сообщений. Скачать торрент Проверен [480x360] Как украсть небоскреб / Tower Heist (2011) BDRip

в форуме Видео для смартфонов и КПК, Размер: 669.05 МБ, Здоровье: 100%

Anonymous

0
2|1

50
1

25 окт 2014, 23:27

Anonymous Перейти к последнему сообщению

В этой теме нет новых непрочитанных сообщений. Скачать торрент После заката / After the Sunset (Бретт Рэтнер / Brett Ratner) [2004 г., боевик, криминальная комедия, драма, BDRip-AVC] Dub

в форуме Боевики, Размер: 2.4 ГБ, Здоровье: 100%

Anonymous

0
8|2

46
0

22 апр 2014, 11:51

Anonymous Перейти к последнему сообщению

В этой теме нет новых непрочитанных сообщений. Скачать торрент Час пик 2 / Rush Hour 2 (Бретт Рэтнер / Brett Ratner) [2001, США, Гонконг, Комедия, Боевик, HDRip]

в форуме Комедии, Размер: 1.32 ГБ, Здоровье: 100%

Anonymous

0
8|2

50
0

24 апр 2014, 14:06

Anonymous Перейти к последнему сообщению



Сейчас этот форум просматривают: нет зарегистрированных пользователей и гости: 1


Вы не можете начинать темы
Вы не можете отвечать на сообщения
Вы не можете редактировать свои сообщения
Вы не можете удалять свои сообщения
Вы не можете добавлять вложения

Перейти:  

!ВНИМАНИЕ!
 Ресурс не предоставляет электронные версии произведений, а занимается лишь коллекционированием и каталогизацией ссылок, присылаемых и публикуемых на форуме нашими читателями. Если вы являетесь правообладателем какого-либо представленного материала и не желаете чтобы ссылка на него находилась в нашем каталоге, свяжитесь с нами и мы незамедлительно удалим её. Файлы для обмена на трекере предоставлены пользователями сайта, и администрация не несёт ответственности за их содержание. Просьба не заливать файлы, защищенные авторскими правами, а также файлы нелегального содержания!