На всех торрентах на трекере установлена скидка на скачивание в размере 100 процентов(а).
 Возможность скачивания торрента НЕ зависит от ограничений при низком ратио, низком аплоаде, требуемом ратио или требуемом аплоаде.


Начать новую тему Ответить на тему
Статистика раздачи
Размер: 2.9 ГБ | Добавлен: 28 фев 2013, 12:54 | Скачали: 1
Сидеров: 1  [0 байт/сек]    Личеров: 0  [0 байт/сек]
Пред. тема | След. тема 

Автор
Сообщение

СообщениеДобавлено: 28 фев 2013, 12:54 

Гарри Поттер и Дары смерти: Часть 2 / Harry Potter and the Deathly Hallows: Part 2

"Все закончится"



Страна: США, Великобритания
Жанр: фэнтези, драма, приключения
Год выпуска: 2011
Продолжительность: 02:10:26
Перевод: Профессиональный (дублированный) (Лицензия)
Cубтитры: русские, английские
Режиссер: Дэвид Йэтс / David Yates

В фильме снимались: Дэниэл Рэдклифф, Руперт Гринт, Эмма Уотсон, Рэйф Файнс, Алан Рикман, Киаран Хайндс, Мэгги Смит, Бонни Райт


Вкратце: В грандиозной последней главе битва между добрыми и злыми силами мира волшебников перерастает во всеобщую войну. Ставки ещё никогда не были так высоки, а поиск убежища — столь сложен. И быть может именно Гарри Поттеру придется пожертвовать всем в финальном сражении с Волан-де-Мортом. Способен ли наш герой спасти мир? И всё закончится здесь.




Качество видео: BDRip (Источник Blu-ray Disc / 1080p)
Формат видео: MKV

Видео: AVC, 1280x536, 2.40:1, 23.976 fps, 2351 kbps
Аудио #1: Russian AC3, 5.1 / 48 kHz / 384 kbps
|Дублированный|
Аудио #2: English AC3, 5.1 / 48 kHz / 448 kbps |Оригинал|
Формат субтитров: softsub (SRT)


MediaInfo
Код:
General
Unique ID                                : 185773589384465393456025110298625246861 (0x8BC2B11E3530B94093223D289C83068D)
Complete name                            : F:\фильмы\Harry.Potter.and.the.Deathly.Hallows.Part.2.2011.MKV.x264.DHT-Movies.mkv
Format                                   : Matroska
Format version                           : Version 2
File size                                : 2.90 GiB
Duration                                 : 2h 10mn
Overall bit rate                         : 3 185 Kbps
Encoded date                             : UTC 2011-10-30 14:43:05
Writing application                      : mkvmerge v4.6.0 ('Still Crazy After All These Years') сборка от Apr  1 2011 21:01:49
Writing library                          : libebml v1.2.0 + libmatroska v1.1.0[br][/br]Video
ID                                       : 1
Format                                   : AVC
Format/Info                              : Advanced Video Codec
Format profile                           : High@L4.1
Format settings, CABAC                   : Yes
Format settings, ReFrames                : 6 frames
Codec ID                                 : V_MPEG4/ISO/AVC
Duration                                 : 2h 10mn
Bit rate                                 : 2 351 Kbps
Width                                    : 1 280 pixels
Height                                   : 536 pixels
Display aspect ratio                     : 2.40:1
Frame rate                               : 23.976 fps
Color space                              : YUV
Chroma subsampling                       : 4:2:0
Bit depth                                : 8 bits
Scan type                                : Progressive
Bits/(Pixel*Frame)                       : 0.143
Stream size                              : 2.09 GiB (72%)
Title                                    : MKV | DHT-Movies | x264
Writing library                          : x264 core 115 r1937 aa21558
Encoding settings                        : cabac=1 / ref=6 / deblock=1:-3:-2 / analyse=0x3:0x113 / me=umh / subme=10 / psy=1 / psy_rd=1.00:0.00 / mixed_ref=1 / me_range=32 / chroma_me=1 / trellis=2 / 8x8dct=1 / cqm=0 / deadzone=21,11 / fast_pskip=1 / chroma_qp_offset=-1 / threads=3 / sliced_threads=0 / nr=0 / decimate=1 / interlaced=0 / bluray_compat=0 / constrained_intra=0 / bframes=6 / b_pyramid=2 / b_adapt=2 / b_bias=0 / direct=1 / weightb=1 / open_gop=0 / weightp=2 / keyint=240 / keyint_min=24 / scenecut=40 / intra_refresh=0 / rc_lookahead=60 / rc=2pass / mbtree=1 / bitrate=2351 / ratetol=1.0 / qcomp=0.60 / qpmin=0 / qpmax=69 / qpstep=4 / cplxblur=20.0 / qblur=0.5 / ip_ratio=1.40 / aq=1:1.00
Language                                 : English
Default                                  : Yes
Forced                                   : No[br][/br]Audio #1
ID                                       : 2
Format                                   : AC-3
Format/Info                              : Audio Coding 3
Mode extension                           : CM (complete main)
Format settings, Endianness              : Big
Codec ID                                 : A_AC3
Duration                                 : 2h 10mn
Bit rate mode                            : Constant
Bit rate                                 : 384 Kbps
Channel(s)                               : 6 channels
Channel positions                        : Front: L C R, Side: L R, LFE
Sampling rate                            : 48.0 KHz
Bit depth                                : 16 bits
Compression mode                         : Lossy
Stream size                              : 358 MiB (12%)
Title                                    : AC3 | 384 | RUS
Language                                 : Russian
Default                                  : Yes
Forced                                   : No[br][/br]Audio #2
ID                                       : 3
Format                                   : AC-3
Format/Info                              : Audio Coding 3
Mode extension                           : CM (complete main)
Format settings, Endianness              : Big
Codec ID                                 : A_AC3
Duration                                 : 2h 10mn
Bit rate mode                            : Constant
Bit rate                                 : 448 Kbps
Channel(s)                               : 6 channels
Channel positions                        : Front: L C R, Side: L R, LFE
Sampling rate                            : 48.0 KHz
Bit depth                                : 16 bits
Compression mode                         : Lossy
Stream size                              : 418 MiB (14%)
Title                                    : AC3 | 448 | ENG
Language                                 : English
Default                                  : No
Forced                                   : No[br][/br]Text #1
ID                                       : 4
Format                                   : UTF-8
Codec ID                                 : S_TEXT/UTF8
Codec ID/Info                            : UTF-8 Plain Text
Title                                    : Sub | Rus
Language                                 : Russian
Default                                  : No
Forced                                   : No[br][/br]Text #2
ID                                       : 5
Format                                   : UTF-8
Codec ID                                 : S_TEXT/UTF8
Codec ID/Info                            : UTF-8 Plain Text
Title                                    : Sub | Eng
Language                                 : English
Default                                  : No
Forced                                   : No[br][/br]Menu
00:00:00.000                             : en:00:00:00.000
00:02:58.219                             : en:00:02:58.219
00:06:21.172                             : en:00:06:21.172
00:10:21.871                             : en:00:10:21.871
00:14:27.992                             : en:00:14:27.992
00:20:05.621                             : en:00:20:05.621
00:22:47.783                             : en:00:22:47.783
00:25:38.620                             : en:00:25:38.620
00:30:46.803                             : en:00:30:46.803
00:34:33.654                             : en:00:34:33.654
00:40:32.262                             : en:00:40:32.262
00:45:52.249                             : en:00:45:52.249
00:50:15.470                             : en:00:50:15.470
00:54:41.027                             : en:00:54:41.027
00:59:01.245                             : en:00:59:01.245
01:03:42.067                             : en:01:03:42.067
01:07:06.063                             : en:01:07:06.063
01:11:24.488                             : en:01:11:24.488
01:14:38.932                             : en:01:14:38.932
01:23:40.848                             : en:01:23:40.848
01:29:17.726                             : en:01:29:17.726
01:31:25.020                             : en:01:31:25.020
01:36:37.666                             : en:01:36:37.666
01:41:09.104                             : en:01:41:09.104
01:46:42.312                             : en:01:46:42.312
01:50:18.361                             : en:01:50:18.361
01:54:16.682                             : en:01:54:16.682
01:58:12.876                             : en:01:58:12.876



загрузка...
Правила, инструкции, FAQ!!!
Торрент  Добавлен [28 фев 2013, 12:54] Скачать торрент
Скачать торрент
[ Размер 15.04 КБ / Просмотров 14 ]

Статус  
 
Размер  2.9 ГБ
Приватный: Нет (DHT включён)
.torrent скачан  1
Как залить торрент? | Как скачать Torrent? | Как смотреть и слушать онлайн?  


     Отправить личное сообщение
   
Страница 1 из 1
Показать сообщения за:  Поле сортировки  
Начать новую тему Ответить на тему

   Похожие торренты   Автор   Ответы   Просмотры   Последнее сообщение 
В этой теме нет новых непрочитанных сообщений. Скачать торрент Гарри Поттер и Дары смерти: Часть 1 / Harry Potter and the Deathly Hallows: Part 1 (Дэвид Йэтс / David Yates) [2010 г., фэнтези, драма, детектив, приключения, BDRip-AVC] Dub

в форуме Фантастика, Фэнтези, Размер: 1.46 ГБ, Здоровье: 100%

Anonymous

0
34|11

57
0

17 май 2014, 20:06

Anonymous Перейти к последнему сообщению

В этой теме нет новых непрочитанных сообщений. Скачать торрент Проверен [PSP] Гарри Поттер и Дары смерти: Часть 1 / Harry Potter and the Deathly Hallows: Part 1 (2010) HDRip

в форуме Видео для смартфонов и КПК, Размер: 410.28 МБ, Здоровье: ???%

Anonymous

0
0|1

49
0

25 окт 2014, 23:21

Anonymous Перейти к последнему сообщению

В этой теме нет новых непрочитанных сообщений. Скачать торрент Гарри Поттер и Орден Феникса / Harry Potter and the Order of the Phoenix (Дэвид Йэтс / David Yates) [2007, Великобритания, Фэнтези, Приключения, Семейный, BDRip-AVC] Dub (CEE) + DVO (Гланц и Королева) + AVO (С. Рябов) + Original + Subs (Rus, Eng)

в форуме 720p | 1080p, Размер: 3.64 ГБ, Здоровье: 100%

Anonymous

0
56|19

36
0

13 фев 2014, 06:32

Anonymous Перейти к последнему сообщению

В этой теме нет новых непрочитанных сообщений. Скачать торрент Гарри Поттер и Принц-полукровка / Harry Potter and the Half-Blood Prince (Дэвид Йэтс / David Yates) [2009 г., фэнтези, приключения, семейный, BDRip] Dub

в форуме Фантастика, Фэнтези, Размер: 1.46 ГБ, Здоровье: 100%

Anonymous

0
34|11

65
0

03 апр 2014, 12:46

Anonymous Перейти к последнему сообщению

В этой теме нет новых непрочитанных сообщений. Скачать торрент Проверен [iPhone] Гарри Поттер Коллекция / Harry Potter Collection (Крис Коламбус, Альфонсо Куарон, Майк Ньюэлл, Дэвид Йэтс / Chris Columbus, Alfonso Cuarón, Mike Newell, David Yates) [2001-2011, Фэнтези, детектив, приключения, семейный, HDRip, 480х200]

в форуме Фильмы для iPod, iPhone, iPad, Размер: 6.38 ГБ, Здоровье: 100%

Anonymous

0
56|19

30
0

11 май 2015, 01:32

Anonymous Перейти к последнему сообщению



Сейчас этот форум просматривают: нет зарегистрированных пользователей и гости: 1


Вы не можете начинать темы
Вы не можете отвечать на сообщения
Вы не можете редактировать свои сообщения
Вы не можете удалять свои сообщения
Вы не можете добавлять вложения

Перейти:  

!ВНИМАНИЕ!
 Ресурс не предоставляет электронные версии произведений, а занимается лишь коллекционированием и каталогизацией ссылок, присылаемых и публикуемых на форуме нашими читателями. Если вы являетесь правообладателем какого-либо представленного материала и не желаете чтобы ссылка на него находилась в нашем каталоге, свяжитесь с нами и мы незамедлительно удалим её. Файлы для обмена на трекере предоставлены пользователями сайта, и администрация не несёт ответственности за их содержание. Просьба не заливать файлы, защищенные авторскими правами, а также файлы нелегального содержания!