На всех торрентах на трекере установлена скидка на скачивание в размере 100 процентов(а).
 Возможность скачивания торрента НЕ зависит от ограничений при низком ратио, низком аплоаде, требуемом ратио или требуемом аплоаде.


Начать новую тему Ответить на тему
Статистика раздачи
Размер: 7.77 ГБ | Добавлен: 10 авг 2014, 12:59 | Скачали: 0
Сидеров: 0  [0 байт/сек]    Личеров: 0  [0 байт/сек]
Пред. тема | След. тема 

Автор
Сообщение

СообщениеДобавлено: 10 авг 2014, 12:59 

Название: Морпехи 2: Поле Огня
Оригинальное название: Jarhead 2: Field of Fire
Год выпуска: 2014
Жанр: Боевик, военный
Выпущено: США, BUFO, Universal Pictures
Режиссер: Дон Майкл Пол
В ролях: Джейсон Вонг, Джесси Гарсиа, Стивен Лэнг

О фильме: Фильм про операцию морпехов в провинции Гильменд.



Качество: BDRip (1080p)
Видео: MPEG-4 AVC, 8888 Кбит/с, 1920х800, 23.976 кадр/с
Аудио: Русский (AC3, 6 ch, 448 Кбит/с), английский (DTS, 6 ch, 1509 Кбит/с)

Продолжительность: 01:42:36
Перевод: Любительский одноголосый
Субтитры: Английские
Сохранены оригинальные чаптеры как на Blu-Ray.
Озвучивание: Любительское одноголосое (Andi), перевод М. Васильев
x264 [info]: frame I:1196 Avg QP:14.70 size:240300
x264 [info]: frame P:43203 Avg QP:18.56 size: 79063
x264 [info]: frame B:103214 Avg QP:20.10 size: 30362
x264 [info]: consecutive B-frames: 8.7% 6.7% 14.2% 17.0% 15.0% 30.0% 4.1% 1.3% 0.9% 2.0%
x264 [info]: mb I I16..4: 12.3% 69.6% 18.1%
x264 [info]: mb P I16..4: 2.3% 21.4% 1.8% P16..4: 30.8% 31.1% 6.6% 2.6% 0.3% skip: 3.1%
x264 [info]: mb B I16..4: 0.3% 3.3% 0.2% B16..8: 36.4% 19.3% 2.3% direct: 8.0% skip:30.4% L0:42.8% L1:44.0% BI:13.2%
x264 [info]: 8x8 transform intra:83.8% inter:57.2%
x264 [info]: direct mvs spatial:98.9% temporal:1.1%
x264 [info]: coded y,uvDC,uvAC intra: 89.4% 87.2% 62.4% inter: 32.6% 34.9% 16.4%
x264 [info]: i16 v,h,dc,p: 20% 7% 5% 68%
x264 [info]: i8 v,h,dc,ddl,ddr,vr,hd,vl,hu: 9% 9% 6% 10% 13% 13% 13% 13% 15%
x264 [info]: i4 v,h,dc,ddl,ddr,vr,hd,vl,hu: 10% 8% 5% 8% 16% 14% 15% 11% 13%
x264 [info]: i8c dc,h,v,p: 46% 20% 17% 17%
x264 [info]: Weighted P-Frames: Y:1.6% UV:0.6%
x264 [info]: ref P L0: 54.0% 11.9% 20.1% 6.5% 6.2% 1.3% 0.0%
x264 [info]: ref B L0: 79.8% 14.7% 4.2% 1.2%
x264 [info]: ref B L1: 93.8% 6.2%
x264 [info]: kb/s:8883.89


Общее
Уникальный идентификатор : 225788967184753880878892484404120794459 (0xA9DD5F90AD302E069FD15C98B32A355B)
Полное имя : D:ЗагрузкиJarhead.2.Field.Of.Fire.2014.x264.BDRip.(1080p).ExKinoRay.mkv
Формат : Matroska
Версия формата : Version 2
Размер файла : 7,77 Гбайт
Продолжительность : 1 ч. 42 м.
Общий поток : 10,8 Мбит/сек
Название фильма : Морпехи 2: Поле Огня.2014.Rip by: ollan
Дата кодирования : UTC 2014-08-10 09:10:46
Программа кодирования : mkvmerge v5.6.0 ('Kenya Kane') built on May 27 2012 16:44:04
Библиотека кодирования : libebml v1.2.3 + libmatroska v1.3.0

Видео
Идентификатор : 1
Формат : AVC
Формат/Информация : Advanced Video Codec
Профиль формата : High@L4.1
Параметр CABAC формата : Да
Параметр ReFrames формата : 5 кадров
Идентификатор кодека : V_MPEG4/ISO/AVC
Продолжительность : 1 ч. 42 м.
Битрейт : 8888 Кбит/сек
Ширина : 1920 пикселей
Высота : 800 пикселей
Соотношение сторон : 2,40:1
Режим частоты кадров : Постоянный
Частота кадров : 23,976 кадра/сек
Цветовое пространство : YUV
Субдискретизация насыщенности : 4:2:0
Битовая глубина : 8 бит
Тип развёртки : Прогрессивная
Бит/(Пиксели*Кадры) : 0.241
Размер потока : 6,21 Гбайт (80%)
Библиотека кодирования : x264 core 125 r2200 999b753
Настройки программы : cabac=1 / ref=5 / deblock=1:-3:-3 / analyse=0x3:0x133 / me=umh / subme=11 / psy=1 / psy_rd=1.00:0.10 / mixed_ref=1 / me_range=32 / chroma_me=1 / trellis=2 / 8x8dct=1 / cqm=0 / deadzone=21,11 / fast_pskip=0 / chroma_qp_offset=-3 / threads=12 / lookahead_threads=2 / sliced_threads=0 / nr=0 / decimate=0 / interlaced=0 / bluray_compat=0 / constrained_intra=0 / bframes=9 / b_pyramid=2 / b_adapt=2 / b_bias=0 / direct=3 / weightb=1 / open_gop=0 / weightp=2 / keyint=240 / keyint_min=23 / scenecut=40 / intra_refresh=0 / rc_lookahead=40 / rc=2pass / mbtree=1 / bitrate=8888 / ratetol=1.0 / qcomp=0.60 / qpmin=0 / qpmax=69 / qpstep=4 / cplxblur=20.0 / qblur=0.5 / ip_ratio=1.40 / aq=1:1.00
Язык : English
Default : Да
Forced : Нет

Аудио #1
Идентификатор : 2
Формат : AC-3
Формат/Информация : Audio Coding 3
Расширение режима : CM (complete main)
Параметр Endianness формата : Big
Идентификатор кодека : A_AC3
Продолжительность : 1 ч. 42 м.
Вид битрейта : Постоянный
Битрейт : 448 Кбит/сек
Каналы : 6 каналов
Расположение каналов : Front: L C R, Side: L R, LFE
Частота : 48,0 КГц
Битовая глубина : 16 бит
Метод сжатия : С потерями
Размер потока : 329 Мбайт (4%)
Заголовок : Любительский одноголосый (Аndi)
Язык : Russian
Default : Да
Forced : Нет

Аудио #2
Идентификатор : 3
Формат : DTS
Формат/Информация : Digital Theater Systems
Режим : 16
Параметр Endianness формата : Big
Идентификатор кодека : A_DTS
Продолжительность : 1 ч. 42 м.
Вид битрейта : Постоянный
Битрейт : 1509 Кбит/сек
Каналы : 6 каналов
Расположение каналов : Front: L C R, Side: L R, LFE
Частота : 48,0 КГц
Битовая глубина : 24 бит
Метод сжатия : С потерями
Размер потока : 1,08 Гбайт (14%)
Язык : English
Default : Нет
Forced : Нет

Текст
Идентификатор : 4
Формат : UTF-8
Идентификатор кодека : S_TEXT/UTF8
Идентификатор кодека/Информация : UTF-8 Plain Text
Язык : English
Default : Нет
Forced : Нет

Меню
00:00:00.000 : en:Chapter 01
00:04:32.021 : en:Chapter 02
00:10:00.182 : en:Chapter 03
00:14:43.882 : en:Chapter 04
00:20:42.574 : en:Chapter 05
00:24:20.667 : en:Chapter 06
00:29:05.910 : en:Chapter 07
00:32:23.358 : en:Chapter 08
00:38:24.677 : en:Chapter 09
00:44:27.998 : en:Chapter 10
00:48:07.092 : en:Chapter 11
00:56:08.573 : en:Chapter 12
00:58:16.743 : en:Chapter 13
01:05:41.729 : en:Chapter 14
01:10:51.455 : en:Chapter 15
01:12:15.581 : en:Chapter 16
01:21:46.526 : en:Chapter 17
01:29:07.133 : en:Chapter 18
01:35:12.456 : en:Chapter 19
01:39:02.478 : en:Chapter 20
01:42:36.525 : en:Chapter 21







Релиз от: Rip by:
загрузка...
Правила, инструкции, FAQ!!!
Торрент  Добавлен [10 авг 2014, 12:59] Скачать торрент
Скачать торрент
[ Размер 20.06 КБ / Просмотров 5 ]

Статус
Проверен 
 
Размер  7.77 ГБ
Приватный: Нет (DHT включён)
.torrent скачан  0
Как залить торрент? | Как скачать Torrent? | Как смотреть и слушать онлайн?  


     Отправить личное сообщение
   
Страница 1 из 1
Показать сообщения за:  Поле сортировки  
Начать новую тему Ответить на тему

   Похожие торренты   Автор   Ответы   Просмотры   Последнее сообщение 
В этой теме нет новых непрочитанных сообщений. Скачать торрент Проверен Морпехи 2 : Поле Огня / Jarhead 2: Field of Fire (2014) BDRip | L1

в форуме Боевики, Размер: 1.46 ГБ, Здоровье: 100%

Anonymous

0
431|20

69
10648

10 авг 2014, 12:35

Anonymous Перейти к последнему сообщению

В этой теме нет новых непрочитанных сообщений. Скачать торрент Проверен Морпехи 2 : Поле Огня / Jarhead 2: Field of Fire (2014) BDRip 720p | L1

в форуме 720p | 1080p, Размер: 3.82 ГБ, Здоровье: 100%

Anonymous

0
164|17

73
3400

10 авг 2014, 12:37

Anonymous Перейти к последнему сообщению

В этой теме нет новых непрочитанных сообщений. Скачать торрент Морпехи / Jarhead (2005) BDRip 720p | D, A

в форуме 720p | 1080p, Размер: 7.93 ГБ, Здоровье: 100%

Anonymous

0
15|0

48
241

19 мар 2014, 15:12

Anonymous Перейти к последнему сообщению

В этой теме нет новых непрочитанных сообщений. Скачать торрент Проверен [iPad] Морпехи / Jarhead (Сэм Мендес/ Sam Mendes) [2005, Германия, США, Военный, драма, биография, BDRip, 576p] Dub + Original + sub (rus, eng)

в форуме Фильмы для iPod, iPhone, iPad, Размер: 2.11 ГБ, Здоровье: 100%

Anonymous

0
4|1

41
0

18 май 2015, 10:47

Anonymous Перейти к последнему сообщению

В этой теме нет новых непрочитанных сообщений. Скачать торрент Проверен (Hard Rock) Fire In The Field - Fire In The Field - 2009, MP3, 320 kbps

в форуме Classic Rock & Hard Rock, Размер: 72.84 МБ, Здоровье: 0%

Anonymous

0
0|0

5
0

13 ноя 2016, 14:26

Anonymous Перейти к последнему сообщению



Сейчас этот форум просматривают: нет зарегистрированных пользователей и гости: 1


Вы не можете начинать темы
Вы не можете отвечать на сообщения
Вы не можете редактировать свои сообщения
Вы не можете удалять свои сообщения
Вы не можете добавлять вложения

Перейти:  

!ВНИМАНИЕ!
 Ресурс не предоставляет электронные версии произведений, а занимается лишь коллекционированием и каталогизацией ссылок, присылаемых и публикуемых на форуме нашими читателями. Если вы являетесь правообладателем какого-либо представленного материала и не желаете чтобы ссылка на него находилась в нашем каталоге, свяжитесь с нами и мы незамедлительно удалим её. Файлы для обмена на трекере предоставлены пользователями сайта, и администрация не несёт ответственности за их содержание. Просьба не заливать файлы, защищенные авторскими правами, а также файлы нелегального содержания!