На всех торрентах на трекере установлена скидка на скачивание в размере 100 процентов(а).
 Возможность скачивания торрента НЕ зависит от ограничений при низком ратио, низком аплоаде, требуемом ратио или требуемом аплоаде.


Начать новую тему Ответить на тему
Статистика раздачи
Размер: 3.82 ГБ | Добавлен: 10 авг 2014, 12:37 | Скачали: 3400
Сидеров: 164  [0 байт/сек]    Личеров: 17  [0 байт/сек]
Пред. тема | След. тема 

Автор
Сообщение

СообщениеДобавлено: 10 авг 2014, 12:37 

Название: Морпехи 2 : Поле Огня
Оригинальное название: Jarhead 2: Field of Fire
Год выхода: 2014
Жанр: Боевик, Военный
Режиссер: Дон Майкл Пол

В ролях: Джейсон Вонг, Джесси Гарсиа, Стивен Лэнг

О фильме: Фильм про операцию морпехов в провинции Гильменд.



Выпущено: США
Продолжительность: 01:42:36
Озвучивание: Любительское (одноголосое) [Andi], перевод [М. Васильев]


Формат: MKV
Качество: BDRip 720p
Видео: 4209 kb/s, 1280х354
Аудио: Russian: AC3, 448 kb/s (6 ch) / English: AC3, 640 kb/s (6 ch)
Субтитры: English, Spanish, French





Complete name : Morpehi.2.pole.ognya.2014.L1.BDRip.720p.mkv
Format : Matroska
Format version : Version 4 / Version 2
File size : 3.82 GiB
Duration : 1h 42mn
Overall bit rate : 5 328 Kbps
Movie name : Jarhead 2: Field of Fire
Encoded date : UTC 2014-08-10 06:47:39
Writing application : mkvmerge v6.1.0 ('Old Devil') built on Mar 4 2013 09:10:42
Writing library : libebml v1.3.0 + libmatroska v1.4.0

Video
ID : 1
Format : AVC
Format/Info : Advanced Video Codec
Format profile : High@L4.1
Format settings, CABAC : Yes
Format settings, ReFrames : 12 frames
Codec ID : V_MPEG4/ISO/AVC
Duration : 1h 42mn
Bit rate : 4 209 Kbps
Width : 1 280 pixels
Height : 534 pixels
Display aspect ratio : 2.40:1
Frame rate : 23.976 fps
Color space : YUV
Chroma subsampling : 4:2:0
Bit depth : 8 bits
Scan type : Progressive
Bits/(Pixel*Frame) : 0.257
Stream size : 2.96 GiB (78%)
Title : Rip by 03nazar03
Writing library : x264 core 130 r2273 b3065e6
Encoding settings : cabac=1 / ref=12 / deblock=1:-3:-3 / analyse=0x3:0x133 / me=umh / subme=11 / psy=1 / psy_rd=1.00:0.20 / mixed_ref=1 / me_range=32 / chroma_me=1 / trellis=2 / 8x8dct=1 / cqm=0 / deadzone=21,11 / fast_pskip=1 / chroma_qp_offset=-3 / threads=18 / lookahead_threads=3 / sliced_threads=0 / nr=0 / decimate=1 / interlaced=0 / bluray_compat=0 / constrained_intra=0 / bframes=10 / b_pyramid=2 / b_adapt=2 / b_bias=0 / direct=3 / weightb=1 / open_gop=0 / weightp=2 / keyint=250 / keyint_min=23 / scenecut=40 / intra_refresh=0 / rc=2pass / mbtree=0 / bitrate=4209 / ratetol=1.0 / qcomp=0.60 / qpmin=0 / qpmax=69 / qpstep=4 / cplxblur=20.0 / qblur=0.5 / ip_ratio=1.40 / pb_ratio=1.30 / aq=1:1.00
Language : English
Default : Yes
Forced : No

Audio #1
ID : 2
Format : AC-3
Format/Info : Audio Coding 3
Mode extension : CM (complete main)
Format settings, Endianness : Big
Codec ID : A_AC3
Duration : 1h 42mn
Bit rate mode : Constant
Bit rate : 448 Kbps
Channel(s) : 6 channels
Channel positions : Front: L C R, Side: L R, LFE
Sampling rate : 48.0 KHz
Bit depth : 16 bits
Compression mode : Lossy
Stream size : 329 MiB (8%)
Language : Russian
Default : Yes
Forced : No

Audio #2
ID : 3
Format : AC-3
Format/Info : Audio Coding 3
Mode extension : CM (complete main)
Format settings, Endianness : Big
Codec ID : A_AC3
Duration : 1h 42mn
Bit rate mode : Constant
Bit rate : 640 Kbps
Channel(s) : 6 channels
Channel positions : Front: L C R, Side: L R, LFE
Sampling rate : 48.0 KHz
Bit depth : 16 bits
Compression mode : Lossy
Stream size : 470 MiB (12%)
Language : English
Default : No
Forced : No

Text #1
ID : 4
Format : PGS
Muxing mode : zlib
Codec ID : S_HDMV/PGS
Codec ID/Info : The same subtitle format used on BDs/HD-DVDs
Language : English
Default : No
Forced : No

Text #2
ID : 5
Format : PGS
Muxing mode : zlib
Codec ID : S_HDMV/PGS
Codec ID/Info : The same subtitle format used on BDs/HD-DVDs
Language : Spanish
Default : No
Forced : No

Text #3
ID : 6
Format : PGS
Muxing mode : zlib
Codec ID : S_HDMV/PGS
Codec ID/Info : The same subtitle format used on BDs/HD-DVDs
Language : French
Default : No
Forced : No

Text #4
ID : 7
Format : PGS
Muxing mode : zlib
Codec ID : S_HDMV/PGS
Codec ID/Info : The same subtitle format used on BDs/HD-DVDs
Language : Spanish
Default : No
Forced : No

Menu
00:00:00.000 : en:Chapter 01
00:04:32.021 : en:Chapter 02
00:10:00.182 : en:Chapter 03
00:14:43.883 : en:Chapter 04
00:20:42.574 : en:Chapter 05
00:24:20.667 : en:Chapter 06
00:29:05.910 : en:Chapter 07
00:32:23.358 : en:Chapter 08
00:38:24.677 : en:Chapter 09
00:44:27.998 : en:Chapter 10
00:48:07.092 : en:Chapter 11
00:56:08.573 : en:Chapter 12
00:58:16.743 : en:Chapter 13
01:05:41.729 : en:Chapter 14
01:10:51.455 : en:Chapter 15
01:12:15.581 : en:Chapter 16
01:21:46.526 : en:Chapter 17
01:29:07.133 : en:Chapter 18
01:35:12.456 : en:Chapter 19
01:39:02.478 : en:Chapter 20


Релиз:
загрузка...
Правила, инструкции, FAQ!!!
Торрент  Добавлен [10 авг 2014, 12:37] Скачать торрент
Скачать торрент
[ Размер 19.67 КБ / Просмотров 6 ]

Статус
Проверен 
 
Размер  3.82 ГБ
Приватный: Нет (DHT включён)
.torrent скачан  3400
Как залить торрент? | Как скачать Torrent? | Как смотреть и слушать онлайн?  


     Отправить личное сообщение
   
Страница 1 из 1
Показать сообщения за:  Поле сортировки  
Начать новую тему Ответить на тему

   Похожие торренты   Автор   Ответы   Просмотры   Последнее сообщение 
В этой теме нет новых непрочитанных сообщений. Скачать торрент Проверен Морпехи 2 : Поле Огня / Jarhead 2: Field of Fire (2014) BDRip | L1

в форуме Боевики, Размер: 1.46 ГБ, Здоровье: 100%

Anonymous

0
431|20

71
10648

10 авг 2014, 12:35

Anonymous Перейти к последнему сообщению

В этой теме нет новых непрочитанных сообщений. Скачать торрент Проверен Морпехи 2 : Поле Огня / Jarhead 2: Field of Fire (2014) BDRip 1080p | L1

в форуме 720p | 1080p, Размер: 7.77 ГБ, Здоровье: 0%

Anonymous

0
0|0

58
0

10 авг 2014, 12:59

Anonymous Перейти к последнему сообщению

В этой теме нет новых непрочитанных сообщений. Скачать торрент Морпехи / Jarhead (2005) BDRip 720p | D, A

в форуме 720p | 1080p, Размер: 7.93 ГБ, Здоровье: 100%

Anonymous

0
15|0

48
241

19 мар 2014, 15:12

Anonymous Перейти к последнему сообщению

В этой теме нет новых непрочитанных сообщений. Скачать торрент Проверен [iPad] Морпехи / Jarhead (Сэм Мендес/ Sam Mendes) [2005, Германия, США, Военный, драма, биография, BDRip, 576p] Dub + Original + sub (rus, eng)

в форуме Фильмы для iPod, iPhone, iPad, Размер: 2.11 ГБ, Здоровье: 100%

Anonymous

0
4|1

43
0

18 май 2015, 10:47

Anonymous Перейти к последнему сообщению

В этой теме нет новых непрочитанных сообщений. Скачать торрент Проверен Власть огня / Reign of Fire (2002) BDRip 720p | D | Лицензия

в форуме 720p | 1080p, Размер: 7.74 ГБ, Здоровье: 100%

Anonymous

0
5|0

40
15

29 июн 2014, 22:42

Anonymous Перейти к последнему сообщению



Сейчас этот форум просматривают: нет зарегистрированных пользователей и гости: 2


Вы не можете начинать темы
Вы не можете отвечать на сообщения
Вы не можете редактировать свои сообщения
Вы не можете удалять свои сообщения
Вы не можете добавлять вложения

Перейти:  

!ВНИМАНИЕ!
 Ресурс не предоставляет электронные версии произведений, а занимается лишь коллекционированием и каталогизацией ссылок, присылаемых и публикуемых на форуме нашими читателями. Если вы являетесь правообладателем какого-либо представленного материала и не желаете чтобы ссылка на него находилась в нашем каталоге, свяжитесь с нами и мы незамедлительно удалим её. Файлы для обмена на трекере предоставлены пользователями сайта, и администрация не несёт ответственности за их содержание. Просьба не заливать файлы, защищенные авторскими правами, а также файлы нелегального содержания!