На всех торрентах на трекере установлена скидка на скачивание в размере 100 процентов(а).
 Возможность скачивания торрента НЕ зависит от ограничений при низком ратио, низком аплоаде, требуемом ратио или требуемом аплоаде.


Начать новую тему Ответить на тему
Статистика раздачи
Размер: 6.23 ГБ | Добавлен: 10 авг 2014, 09:12 | Скачали: 227
Сидеров: 10  [0 байт/сек]    Личеров: 0  [0 байт/сек]
Пред. тема | След. тема 

Автор
Сообщение

СообщениеДобавлено: 10 авг 2014, 09:12 

Название: Азуми
Оригинальное название: Azumi
Год выпуска: 2003
Жанр: Боевик, триллер, фэнтези, драма, приключения
Выпущено: Япония, Amuse Pictures Inc
Режиссер: Рюхэй Китамура

В ролях: Ая Уето, Шун Огури, Хироки Наримия, Кенджи Кохаши, Такатоши Канеко, Юма Ишигаки, Ясуоми Сано, Шиньджи Сузуки, Эйта, Шого Ямагучи, Казуки Китамура, Кеничи Эндо, Казуя Шимицу, Рио, Йошио Харада, Масато Ибу, Минору Мацумото, Джо Одагири, Ая Окамото, Так Сакагучи

О фильме: В одном из уединённых монастырей путем жесткого отбора и специальных тренировок создавалась каста профессиональных убийц. Десять выпускников сошлись в смертельной схватке. В живых останутся лучшие. Ей предназначена миссия по предотвращению гражданской войны путем уничтожения правителей трёх провинций. Но время было упущено, и теперь Азуми предстоит сражение с огромной армией последнего правителя…

Качество: BDRip 720p

Продолжительность: 02:13:12

Видео: MPEG-4 AVC, 5476 Kбит/с, 1280x686
Аудио 1: русский, 48 kHz, AC3, 6 ch, 448 kbps avg, [Профессиональный многоголосый, Cinema Prestige]
Аудио 2: русский, 48 kHz, AC3, 2 ch, 192 kbps avg, [Любительский одноголосый]
Аудио 3: японский, 48 kHz, AC3, 6 ch, 448 kbps avg, [Оригинал]

Исходник: Augnychku (Кинозал)





Общее
Уникальный идентификатор : 191336844719567896247680949576755914542 (0x8FF222C87117B60DAD774BA420F9272E)
Полное имя : D:VideoAzumi.2003.BDRip.720p.mkv
Формат : Matroska
Версия формата : Version 4 / Version 2
Размер файла : 6,23 Гбайт
Продолжительность : 2 ч. 13 м.
Общий поток : 6697 Кбит/сек
Дата кодирования : UTC 2014-08-10 04:25:23
Программа кодирования : mkvmerge v6.9.1 ('Blue Panther') 64bit built on Apr 18 2014 18:23:38
Библиотека кодирования : libebml v1.3.0 + libmatroska v1.4.1

Видео
Идентификатор : 1
Формат : AVC
Формат/Информация : Advanced Video Codec
Профиль формата : High@L4.1
Параметр CABAC формата : Да
Параметр ReFrames формата : 9 кадров
Идентификатор кодека : V_MPEG4/ISO/AVC
Продолжительность : 2 ч. 13 м.
Битрейт : 5476 Кбит/сек
Ширина : 1280 пикселей
Высота : 686 пикселей
Соотношение сторон : 1,85:1
Режим частоты кадров : Постоянный
Частота кадров : 23,976 кадра/сек
Цветовое пространство : YUV
Субдискретизация насыщенности : 4:2:0
Битовая глубина : 8 бит
Тип развёртки : Прогрессивная
Бит/(Пиксели*Кадры) : 0.260
Размер потока : 5,09 Гбайт (82%)
Заголовок : BDRip -- STarankov
Библиотека кодирования : x264 core 142 r2431 ac76440
Настройки программы : cabac=1 / ref=9 / deblock=1:-1:-1 / analyse=0x3:0x113 / me=umh / subme=10 / psy=1 / psy_rd=1.00:0.15 / mixed_ref=1 / me_range=32 / chroma_me=1 / trellis=2 / 8x8dct=1 / cqm=0 / deadzone=21,11 / fast_pskip=0 / chroma_qp_offset=-3 / threads=6 / lookahead_threads=1 / sliced_threads=0 / nr=0 / decimate=1 / interlaced=0 / bluray_compat=0 / constrained_intra=0 / bframes=8 / b_pyramid=2 / b_adapt=2 / b_bias=0 / direct=1 / weightb=1 / open_gop=0 / weightp=2 / keyint=230 / keyint_min=23 / scenecut=40 / intra_refresh=0 / rc_lookahead=40 / rc=crf / mbtree=0 / crf=16.0 / qcomp=0.60 / qpmin=0 / qpmax=69 / qpstep=4 / vbv_maxrate=40000 / vbv_bufsize=50000 / crf_max=0.0 / nal_hrd=none / filler=0 / ip_ratio=1.40 / pb_ratio=1.30 / aq=1:1.00
Язык : Japanese
Default : Да
Forced : Нет

Аудио #1
Идентификатор : 2
Формат : AC-3
Формат/Информация : Audio Coding 3
Расширение режима : CM (complete main)
Параметр Endianness формата : Big
Идентификатор кодека : A_AC3
Продолжительность : 2 ч. 13 м.
Вид битрейта : Постоянный
Битрейт : 448 Кбит/сек
Каналы : 6 каналов
Расположение каналов : Front: L C R, Side: L R, LFE
Частота : 48,0 КГц
Битовая глубина : 16 бит
Метод сжатия : С потерями
Размер потока : 427 Мбайт (7%)
Заголовок : MVO (Cinema Prestige)
Язык : Russian
Default : Да
Forced : Нет

Аудио #2
Идентификатор : 3
Формат : AC-3
Формат/Информация : Audio Coding 3
Расширение режима : CM (complete main)
Параметр Endianness формата : Big
Идентификатор кодека : A_AC3
Продолжительность : 2 ч. 13 м.
Вид битрейта : Постоянный
Битрейт : 192 Кбит/сек
Каналы : 2 канала
Расположение каналов : Front: L R
Частота : 48,0 КГц
Битовая глубина : 16 бит
Метод сжатия : С потерями
Размер потока : 183 Мбайт (3%)
Заголовок : VO (любительский одноголосый)
Язык : Russian
Default : Нет
Forced : Нет

Аудио #3
Идентификатор : 4
Формат : AC-3
Формат/Информация : Audio Coding 3
Расширение режима : CM (complete main)
Параметр Endianness формата : Big
Идентификатор кодека : A_AC3
Продолжительность : 2 ч. 13 м.
Вид битрейта : Постоянный
Битрейт : 448 Кбит/сек
Каналы : 6 каналов
Расположение каналов : Front: L C R, Side: L R, LFE
Частота : 48,0 КГц
Битовая глубина : 16 бит
Метод сжатия : С потерями
Размер потока : 427 Мбайт (7%)
Заголовок : Original
Язык : Japanese
Default : Нет
Forced : Нет

---[Information] [10.08.2014 2:04:28] raw [info]: 1280x686p 1:1 @ 24000/1001 fps (cfr)
---[Information] [10.08.2014 2:04:28] x264 [info]: using SAR=1/1
---[Information] [10.08.2014 2:04:28] x264 [info]: using cpu capabilities: MMX2 SSE2Fast SSSE3 SSE4.2
---[Information] [10.08.2014 2:04:28] x264 [info]: profile High, level 4.1
---[Information] [10.08.2014 10:56:18] x264 [info]: frame I:1677 Avg QP:13.93 size:103091
---[Information] [10.08.2014 10:56:18] x264 [info]: frame P:38779 Avg QP:14.93 size: 51823
---[Information] [10.08.2014 10:56:18] x264 [info]: frame B:151171 Avg QP:16.90 size: 22619
---[Information] [10.08.2014 10:56:18] x264 [info]: consecutive B-frames: 2.0% 1.8% 6.3% 13.3% 13.8% 50.8% 6.5% 1.4% 4.1%
---[Information] [10.08.2014 10:56:18] x264 [info]: mb I I16..4: 4.9% 67.0% 28.2%
---[Information] [10.08.2014 10:56:18] x264 [info]: mb P I16..4: 2.2% 29.3% 8.2% P16..4: 21.2% 23.5% 15.3% 0.0% 0.0% skip: 0.4%
---[Information] [10.08.2014 10:56:18] x264 [info]: mb B I16..4: 0.4% 5.6% 0.9% B16..8: 32.1% 18.4% 5.8% direct:15.8% skip:21.0% L0:43.3% L1:39.9% BI:16.8%
---[Information] [10.08.2014 10:56:18] x264 [info]: 8x8 transform intra:76.0% inter:45.7%
---[Information] [10.08.2014 10:56:18] x264 [info]: coded y,uvDC,uvAC intra: 87.3% 88.9% 68.1% inter: 41.6% 42.1% 6.2%
---[Information] [10.08.2014 10:56:18] x264 [info]: i16 v,h,dc,p: 28% 16% 18% 38%
---[Information] [10.08.2014 10:56:18] x264 [info]: i8 v,h,dc,ddl,ddr,vr,hd,vl,hu: 16% 14% 21% 6% 7% 8% 8% 9% 12%
---[Information] [10.08.2014 10:56:18] x264 [info]: i4 v,h,dc,ddl,ddr,vr,hd,vl,hu: 15% 13% 10% 8% 12% 11% 11% 9% 11%
---[Information] [10.08.2014 10:56:18] x264 [info]: i8c dc,h,v,p: 47% 26% 19% 9%
---[Information] [10.08.2014 10:56:18] x264 [info]: Weighted P-Frames: Y:4.6% UV:2.3%
---[Information] [10.08.2014 10:56:18] x264 [info]: ref P L0: 42.8% 9.8% 18.7% 7.2% 6.5% 4.8% 4.3% 2.7% 2.8% 0.3% 0.0%
---[Information] [10.08.2014 10:56:18] x264 [info]: ref B L0: 73.7% 12.1% 5.3% 2.9% 2.4% 2.0% 1.2% 0.4%
---[Information] [10.08.2014 10:56:18] x264 [info]: ref B L1: 92.8% 7.2%
---[Information] [10.08.2014 10:56:18] x264 [info]: kb/s:5607.10
---[Information] [10.08.2014 10:56:18] encoded 191627 frames, 6.00 fps, 5607.10 kb/s
---[Information] [10.08.2014 10:56:18] avs [info]: AviSynth 2.60, build:May 25 2011 [19:58:41]
---[Information] [10.08.2014 10:56:18] avs [info]: Video colorspace: YV12
---[Information] [10.08.2014 10:56:18] avs [info]: Video resolution: 1280x686
---[Information] [10.08.2014 10:56:18] avs [info]: Video framerate: 24000/1001
---[Information] [10.08.2014 10:56:18] avs [info]: Video framecount: 191627
---[Information] [10.08.2014 10:56:18] avs4x264 [info]: "x264_64" - --level 4.1 --tune film --crf 16.0 --keyint 230 --bframes 8 --b-adapt 2 --ref 9 --vbv-bufsize 50000 --vbv-maxrate 40000 --no-mbtree --merange 32 --me umh --subme 10 --trellis 2 --no-fast-pskip --sar 1:1 --output D:RipAzumi.2003.BDRipAzumi.2003.BDRip.720p.mkv --frames 191627 --fps 24000/1001 --input-res 1280x686 --input-csp i420
--[Information] [10.08.2014 10:56:18] Final statistics
---[Information] [10.08.2014 10:56:18] Constant Quality Mode: Quality 16 computed...
---[Information] [10.08.2014 10:56:18] Video Bitrate Obtained (approximate): 5608 kbit/s
--[Information] [10.08.2014 10:56:18] MediaInfo
---[Information] [10.08.2014 10:56:18] File: D:RipAzumi.2003.BDRipAzumi.2003.BDRip.720p.mkv

загрузка...
Правила, инструкции, FAQ!!!
Торрент  Добавлен [10 авг 2014, 09:12] Скачать торрент
Скачать торрент
[ Размер 31.66 КБ / Просмотров 5 ]

Статус
Проверен 
 
Размер  6.23 ГБ
Приватный: Нет (DHT включён)
.torrent скачан  227
Как залить торрент? | Как скачать Torrent? | Как смотреть и слушать онлайн?  


     Отправить личное сообщение
   
Страница 1 из 1
Показать сообщения за:  Поле сортировки  
Начать новую тему Ответить на тему

   Похожие торренты   Автор   Ответы   Просмотры   Последнее сообщение 
В этой теме нет новых непрочитанных сообщений. Скачать торрент Проверен Азуми / Azumi (2003) BDRip 1080p | P, L1

в форуме 720p | 1080p, Размер: 11.15 ГБ, Здоровье: ???%

Anonymous

0
0|2

50
106

09 авг 2014, 14:26

Anonymous Перейти к последнему сообщению

В этой теме нет новых непрочитанных сообщений. Скачать торрент Азуми / Azumi (2003/2005) DVDRip | Дилогия

в форуме Дилогии, Размер: 2.82 ГБ, Здоровье: 100%

Anonymous

0
3|1

199
25

20 янв 2014, 14:14

Anonymous Перейти к последнему сообщению

В этой теме нет новых непрочитанных сообщений. Скачать торрент Проверен Готика / Gothika (2003) BDRip 720p

в форуме 720p | 1080p, Размер: 3.74 ГБ, Здоровье: 100%

Anonymous

0
24|1

30
557

06 авг 2014, 16:21

Anonymous Перейти к последнему сообщению

В этой теме нет новых непрочитанных сообщений. Скачать торрент Проверен Монстр / Monster (2003) BDRip [H.264/720p]

в форуме 720p | 1080p, Размер: 6.44 ГБ, Здоровье: 100%

Гость

0
38|8

90
18

03 апр 2015, 01:23

Гость Перейти к последнему сообщению

В этой теме нет новых непрочитанных сообщений. Скачать торрент Проверен Невезучие / Tais-toi! (2003) [720p] BDRip

в форуме 720p | 1080p, Размер: 4.37 ГБ, Здоровье: ???%

Гость

0
0|1

39
0

01 фев 2015, 23:32

Гость Перейти к последнему сообщению



Сейчас этот форум просматривают: нет зарегистрированных пользователей и гости: 1


Вы не можете начинать темы
Вы не можете отвечать на сообщения
Вы не можете редактировать свои сообщения
Вы не можете удалять свои сообщения
Вы не можете добавлять вложения

Перейти:  

!ВНИМАНИЕ!
 Ресурс не предоставляет электронные версии произведений, а занимается лишь коллекционированием и каталогизацией ссылок, присылаемых и публикуемых на форуме нашими читателями. Если вы являетесь правообладателем какого-либо представленного материала и не желаете чтобы ссылка на него находилась в нашем каталоге, свяжитесь с нами и мы незамедлительно удалим её. Файлы для обмена на трекере предоставлены пользователями сайта, и администрация не несёт ответственности за их содержание. Просьба не заливать файлы, защищенные авторскими правами, а также файлы нелегального содержания!