На всех торрентах на трекере установлена скидка на скачивание в размере 100 процентов(а).
 Возможность скачивания торрента НЕ зависит от ограничений при низком ратио, низком аплоаде, требуемом ратио или требуемом аплоаде.


Начать новую тему Ответить на тему
Статистика раздачи
Размер: 5.05 ГБ | Добавлен: 10 авг 2014, 08:49 | Скачали: 197
Сидеров: 3  [0 байт/сек]    Личеров: 0  [0 байт/сек]
Пред. тема | След. тема 

Автор
Сообщение

СообщениеДобавлено: 10 авг 2014, 08:49 

Название: Седьмые врата ада
Оригинальное название: The Beyond
Год выхода: 1981
Жанр: Ужасы
Режиссер: Лучио Фульчи

В ролях: Катриона МакКолл, Дэвид Уорбек, Чинция Монреале, Антуан Сент-Джон, Вероника Лазар, Энтони Флис, Джованни Де Нава, Эл Клайвер, Мишель Мирабелла, Джанпаоло Саккарола

О фильме:
1927 год, штат Луизиана. Одинокий отель на окраине Нового Орлеана. У входа собираются люди, вооруженные цепями и прочим холодным и огнестрельным оружием. Они врываются в комнату номер 36, которую снимает художник Швейк.Его обвиняют в связях с сатаной, жестоко избивают цепями, а потом приколачивают гвоздями к стене в подвале, обливают кислотой и замуровывают...



Страна: Италия
Студия: Fulvia Film
Продолжительность: 01:27:27
Перевод: Профессиональный многоголосый (закадровый)


Кодек: AVC
Качество: BDRip-1080p
Видео: 1920x818, 7500 kbps, 23,976 fps
Звук 1: AC3, 48 kHz, 384 kbps, 6 ch - [RUS]
Звук 2: AC3, 48 kHz, 384 kbps, 6 ch - [ENG]

General
Unique ID : 246316837473432938048437507333252859822 (0xB94EE5B61666D1C0A007296EB22A47AE)
Complete name : D:The.Beyond,Seven.Doors.of.Death.(1981).BDRip-1080p.[-=DoMiNo=-].mkv
Format : Matroska
Format version : Version 4 / Version 2
File size : 5.05 GiB
Duration : 1h 27mn
Overall bit rate : 8 272 Kbps
Movie name : The.Beyond,Seven.Doors.of.Death.(1981).BDRip-1080p.[-=DoMiNo=-]
Encoded date : UTC 2014-08-10 02:51:01
Writing application : mkvmerge v7.1.0 ('Good Love') 64bit built on Jul 27 2014 13:06:55
Writing library : libebml v1.3.0 + libmatroska v1.4.1
DURATION : 01:27:27.264000000
NUMBER_OF_FRAMES : 163977
NUMBER_OF_BYTES : 251868672
_STATISTICS_WRITING_APP : mkvmerge v7.1.0 ('Good Love') 64bit built on Jul 27 2014 13:06:55
_STATISTICS_WRITING_DATE_UTC : 2014-08-10 02:51:01
_STATISTICS_TAGS : BPS DURATION NUMBER_OF_FRAMES NUMBER_OF_BYTES

Video
ID : 1
Format : AVC
Format/Info : Advanced Video Codec
Format profile : High@L4.1
Format settings, CABAC : Yes
Format settings, ReFrames : 4 frames
Codec ID : V_MPEG4/ISO/AVC
Duration : 1h 27mn
Bit rate : 7 500 Kbps
Width : 1 920 pixels
Height : 818 pixels
Display aspect ratio : 2.35:1
Frame rate mode : Constant
Frame rate : 23.976 fps
Color space : YUV
Chroma subsampling : 4:2:0
Bit depth : 8 bits
Scan type : Progressive
Bits/(Pixel*Frame) : 0.199
Stream size : 4.48 GiB (89%)
Writing library : x264 core 130 r2273 b3065e6
Encoding settings : cabac=1 / ref=4 / deblock=1:-3:-3 / analyse=0x3:0x133 / me=umh / subme=11 / psy=1 / psy_rd=1.00:0.50 / mixed_ref=1 / me_range=32 / chroma_me=1 / trellis=2 / 8x8dct=1 / cqm=0 / deadzone=21,11 / fast_pskip=0 / chroma_qp_offset=-3 / threads=16 / lookahead_threads=4 / sliced_threads=0 / slices=4 / nr=0 / decimate=1 / interlaced=0 / bluray_compat=0 / constrained_intra=0 / bframes=9 / b_pyramid=2 / b_adapt=2 / b_bias=0 / direct=3 / weightb=1 / open_gop=0 / weightp=2 / keyint=250 / keyint_min=23 / scenecut=40 / intra_refresh=0 / rc_lookahead=60 / rc=2pass / mbtree=1 / bitrate=7500 / ratetol=1.0 / qcomp=0.70 / qpmin=0 / qpmax=69 / qpstep=4 / cplxblur=20.0 / qblur=0.5 / ip_ratio=1.40 / aq=2:2.00
Default : Yes
Forced : No

Audio #1
ID : 2
Format : AC-3
Format/Info : Audio Coding 3
Mode extension : CM (complete main)
Format settings, Endianness : Big
Codec ID : A_AC3
Duration : 1h 27mn
Bit rate mode : Constant
Bit rate : 384 Kbps
Channel(s) : 6 channels
Channel positions : Front: L C R, Side: L R, LFE
Sampling rate : 48.0 KHz
Bit depth : 16 bits
Compression mode : Lossy
Stream size : 240 MiB (5%)
Title : Russian
Language : Russian
Default : Yes
Forced : No

Audio #2
ID : 3
Format : AC-3
Format/Info : Audio Coding 3
Mode extension : CM (complete main)
Format settings, Endianness : Big
Codec ID : A_AC3
Duration : 1h 27mn
Bit rate mode : Constant
Bit rate : 384 Kbps
Channel(s) : 6 channels
Channel positions : Front: L C R, Side: L R, LFE
Sampling rate : 48.0 KHz
Bit depth : 16 bits
Compression mode : Lossy
Stream size : 240 MiB (5%)
Title : English
Language : English
Default : No
Forced : No





загрузка...
Правила, инструкции, FAQ!!!
Торрент  Добавлен [10 авг 2014, 08:49] Скачать торрент
Скачать торрент
[ Размер 13.27 КБ / Просмотров 6 ]

Статус
Проверен 
 
Размер  5.05 ГБ
Приватный: Нет (DHT включён)
.torrent скачан  197
Как залить торрент? | Как скачать Torrent? | Как смотреть и слушать онлайн?  


     Отправить личное сообщение
   
Страница 1 из 1
Показать сообщения за:  Поле сортировки  
Начать новую тему Ответить на тему

   Похожие торренты   Автор   Ответы   Просмотры   Последнее сообщение 
В этой теме нет новых непрочитанных сообщений. Скачать торрент Проверен Врата дракона / Long men fei jia / The Flying Swords of Dragon Gate (2011) BDRip [1080p] 3D [Горизонтальная анаморфная стереопара]

в форуме HD-Video в 3D, Размер: 10.59 ГБ, Здоровье: 100%

Anonymous

0
2|0

59
0

12 июл 2014, 11:23

Anonymous Перейти к последнему сообщению

В этой теме нет новых непрочитанных сообщений. Скачать торрент Проверен Врата дракона / Long men fei jia / The Flying Swords of Dragon Gate (2011) BDRip [1080p] 3D [Вертикальная анаморфная стереопара]

в форуме HD-Video в 3D, Размер: 11.67 ГБ, Здоровье: ???%

Anonymous

0
0|1

62
0

12 июл 2014, 11:20

Anonymous Перейти к последнему сообщению

В этой теме нет новых непрочитанных сообщений. Скачать торрент Проверен The Rolling Stones: From The Vault - Hampton Coliseum - Live In 1981 [1981, Rock, BDRip 1080p]

в форуме Концерты (HD-Video), Размер: 10.94 ГБ, Здоровье: 100%

Anonymous

0
17|2

39
1

23 окт 2016, 19:55

Anonymous Перейти к последнему сообщению

В этой теме нет новых непрочитанных сообщений. Скачать торрент Проверен [iPhone] Звездные врата\ Звездные врата:Континуум\ Звездные Врата:Ковчег Истины \ Stargate\ Stargate: Continuum\ Stargate: The Ark of Truth (Роланд Эммерих / Roland EmmerichМартин Вуд (Martin Wo) [1994-2008 г., фантастика, боевик, фэнтези, приключени

в форуме Фильмы для iPod, iPhone, iPad, Размер: 1.45 ГБ, Здоровье: 100%

Гость

0
3|1

58
0

12 май 2015, 00:13

Гость Перейти к последнему сообщению

В этой теме нет новых непрочитанных сообщений. Скачать торрент Проверен Genesis - Three Sides Live [1981, Art Rock, BDRip 1080p]

в форуме Концерты (HD-Video), Размер: 5.47 ГБ, Здоровье: 100%

Anonymous

0
5|2

7
0

23 окт 2016, 16:27

Anonymous Перейти к последнему сообщению



Сейчас этот форум просматривают: нет зарегистрированных пользователей и гости: 3


Вы не можете начинать темы
Вы не можете отвечать на сообщения
Вы не можете редактировать свои сообщения
Вы не можете удалять свои сообщения
Вы не можете добавлять вложения

Перейти:  

!ВНИМАНИЕ!
 Ресурс не предоставляет электронные версии произведений, а занимается лишь коллекционированием и каталогизацией ссылок, присылаемых и публикуемых на форуме нашими читателями. Если вы являетесь правообладателем какого-либо представленного материала и не желаете чтобы ссылка на него находилась в нашем каталоге, свяжитесь с нами и мы незамедлительно удалим её. Файлы для обмена на трекере предоставлены пользователями сайта, и администрация не несёт ответственности за их содержание. Просьба не заливать файлы, защищенные авторскими правами, а также файлы нелегального содержания!