На всех торрентах на трекере установлена скидка на скачивание в размере 100 процентов(а).
 Возможность скачивания торрента НЕ зависит от ограничений при низком ратио, низком аплоаде, требуемом ратио или требуемом аплоаде.


Начать новую тему Ответить на тему
Статистика раздачи
Размер: 8.21 ГБ | Добавлен: 10 авг 2014, 00:58 | Скачали: 242
Сидеров: 8  [0 байт/сек]    Личеров: 1  [0 байт/сек]
Пред. тема | След. тема 

Автор
Сообщение

СообщениеДобавлено: 10 авг 2014, 00:58 

Название: Мечтатели
Оригинальное название: The Dreamers
Год выхода: 2003
Жанр: Драма
Режиссер: Бернардо Бертолуччи / Bernardo Bertolucci

В ролях:
Ева Грин - Изабель
Луи Гаррель - Тео
Майкл Питт - Мэтью
Анна Чанселлор - мать
Робин Ренуччи - отец
Флориан Кадиу - Патрик
Инги Филлион - подруга Тео

О фильме:
Действие фильма происходит накануне и во время майских событий 1968 года в Париже. Юный американец Мэтью приезжает в Париж по программе студенческого обмена, чтобы улучшить своё знание французского. Большую часть свободного времени он проводит в Синематеке, в компании других помешанных на кино подростков, наслаждаясь просмотром современных лент и киноклассики.

Там он встречает своих ровесников, Изабель и Тео, которые утверждают, что при рождении были сросшимися близнецами. Новые знакомые приглашают Мэттью на время отсутствия родителей переехать в их квартиру. Постепенно американцу становится ясно, что близость Изабель и Тео балансирует на грани инцеста. Оторванные от мира студенческих волнений, все трое беззаветно отдаются сексуальным и психологическим экспериментам…

Страна: Франция, Великобритания, Италия
Студия: Recorded Picture Company (RPC), Peninsula Films, Fiction Films
Продолжительность: 01:54:37.344
Перевод: Профессиональный (многоголосый, закадровый) Лицензия
Профессиональный (двухголосый, закадровый) R7

Общее
Уникальный идентификатор : 235839922104052855810940240991787898265 (0xB16D1DE70318C5D08694D4A0ED8F5599)
Полное имя : H:FilmsMechtateli.2003.BDRip720.Korean_transfer.mkv
Формат : Matroska
Версия формата : Version 4 / Version 2
Размер файла : 8,21 Гбайт
Продолжительность : 1 ч. 54 м.
Общий поток : 10,3 Мбит/сек
Дата кодирования : UTC 2014-08-09 14:58:32
Программа кодирования : mkvmerge v7.1.0 ('Good Love') 64bit built on Jul 27 2014 13:06:55
Библиотека кодирования : libebml v1.3.0 + libmatroska v1.4.1
DURATION : 01:47:22.475000000
NUMBER_OF_FRAMES : 703
NUMBER_OF_BYTES : 58990
_STATISTICS_WRITING_APP : mkvmerge v7.1.0 ('Good Love') 64bit built on Jul 27 2014 13:06:55
_STATISTICS_WRITING_DATE_UTC : 2014-08-09 14:58:32
_STATISTICS_TAGS : BPS DURATION NUMBER_OF_FRAMES NUMBER_OF_BYTES

Видео
Идентификатор : 1
Формат : AVC
Формат/Информация : Advanced Video Codec
Профиль формата : High@L4.1
Параметр CABAC формата : Да
Параметр ReFrames формата : 9 кадров
Идентификатор кодека : V_MPEG4/ISO/AVC
Продолжительность : 1 ч. 54 м.
Битрейт : 8571 Кбит/сек
Ширина : 1280 пикселей
Высота : 720 пикселей
Соотношение сторон : 16:9
Режим частоты кадров : Постоянный
Частота кадров : 23,976 кадра/сек
Цветовое пространство : YUV
Субдискретизация насыщенности : 4:2:0
Битовая глубина : 8 бит
Тип развёртки : Прогрессивная
Бит/(Пиксели*Кадры) : 0.388
Размер потока : 6,71 Гбайт (82%)
Библиотека кодирования : x264 core 138 r2358 9e941d1
Настройки программы : cabac=1 / ref=9 / deblock=1:-3:-3 / analyse=0x3:0x133 / me=umh / subme=10 / psy=1 / psy_rd=1.10:0.10 / mixed_ref=1 / me_range=32 / chroma_me=1 / trellis=2 / 8x8dct=1 / cqm=0 / deadzone=21,11 / fast_pskip=0 / chroma_qp_offset=-3 / threads=8 / lookahead_threads=2 / sliced_threads=0 / nr=0 / decimate=0 / interlaced=0 / bluray_compat=0 / constrained_intra=0 / bframes=14 / b_pyramid=2 / b_adapt=2 / b_bias=0 / direct=3 / weightb=1 / open_gop=0 / weightp=2 / keyint=240 / keyint_min=23 / scenecut=60 / intra_refresh=0 / rc_lookahead=60 / rc=2pass / mbtree=0 / bitrate=8571 / ratetol=1.0 / qcomp=0.60 / qpmin=0 / qpmax=69 / qpstep=4 / cplxblur=20.0 / qblur=0.5 / vbv_maxrate=50000 / vbv_bufsize=62500 / nal_hrd=none / ip_ratio=1.40 / pb_ratio=1.30 / aq=1:1.00
Default : Нет
Forced : Нет
Основные цвета : BT.709
Характеристики трансфера : BT.709
Коэффициенты матрицы : BT.709
DURATION : 01:54:37.329000000
NUMBER_OF_FRAMES : 164891
NUMBER_OF_BYTES : 7367498763
_STATISTICS_WRITING_APP : mkvmerge v7.1.0 ('Good Love') 64bit built on Jul 27 2014 13:06:55
_STATISTICS_WRITING_DATE_UTC : 2014-08-09 14:58:32
_STATISTICS_TAGS : BPS DURATION NUMBER_OF_FRAMES NUMBER_OF_BYTES

Аудио #1
Идентификатор : 2
Формат : AC-3
Формат/Информация : Audio Coding 3
Расширение режима : CM (complete main)
Параметр Endianness формата : Big
Идентификатор кодека : A_AC3
Продолжительность : 1 ч. 54 м.
Вид битрейта : Постоянный
Битрейт : 640 Кбит/сек
Каналы : 6 каналов
Расположение каналов : Front: L C R, Side: L R, LFE
Частота : 48,0 КГц
Битовая глубина : 16 бит
Метод сжатия : С потерями
Размер потока : 525 Мбайт (6%)
Язык : Russian
Default : Да
Forced : Нет

Аудио #2
Идентификатор : 3
Формат : AC-3
Формат/Информация : Audio Coding 3
Расширение режима : CM (complete main)
Параметр Endianness формата : Big
Идентификатор кодека : A_AC3
Продолжительность : 1 ч. 54 м.
Вид битрейта : Постоянный
Битрейт : 384 Кбит/сек
Каналы : 6 каналов
Расположение каналов : Front: L C R, Side: L R, LFE
Частота : 48,0 КГц
Битовая глубина : 16 бит
Метод сжатия : С потерями
Размер потока : 315 Мбайт (4%)
Язык : Russian
Default : Нет
Forced : Нет

Аудио #3
Идентификатор : 4
Формат : AC-3
Формат/Информация : Audio Coding 3
Расширение режима : CM (complete main)
Параметр Endianness формата : Big
Идентификатор кодека : A_AC3
Продолжительность : 1 ч. 54 м.
Вид битрейта : Постоянный
Битрейт : 640 Кбит/сек
Каналы : 6 каналов
Расположение каналов : Front: L C R, Side: L R, LFE
Частота : 48,0 КГц
Битовая глубина : 16 бит
Метод сжатия : С потерями
Размер потока : 525 Мбайт (6%)
Язык : English
Default : Нет
Forced : Нет

Текст #1
Идентификатор : 5
Формат : PGS
Режим смешивания : zlib
Идентификатор кодека : S_HDMV/PGS
Идентификатор кодека/Информация : The same subtitle format used on BDs/HD-DVDs
Язык : English
Default : Нет
Forced : Нет

Текст #2
Идентификатор : 6
Формат : UTF-8
Идентификатор кодека : S_TEXT/UTF8
Идентификатор кодека/Информация : UTF-8 Plain Text
Язык : Russian
Default : Нет
Forced : Нет

Меню
00:00:00.000 : en:00:00:00.000
00:01:34.761 : en:00:01:34.761
00:05:29.329 : en:00:05:29.329
00:11:43.328 : en:00:11:43.328
00:16:02.545 : en:00:16:02.545
00:21:38.255 : en:00:21:38.255
00:27:19.555 : en:00:27:19.555
00:30:10.475 : en:00:30:10.475
00:33:31.885 : en:00:33:31.885
00:35:15.780 : en:00:35:15.780
00:38:05.325 : en:00:38:05.325
00:42:53.446 : en:00:42:53.446
00:48:38.666 : en:00:48:38.666
00:59:16.887 : en:00:59:16.887
01:02:44.052 : en:01:02:44.052
01:05:36.057 : en:01:05:36.057
01:10:10.706 : en:01:10:10.706
01:11:33.956 : en:01:11:33.956
01:15:21.684 : en:01:15:21.684
01:20:19.523 : en:01:20:19.523
01:24:43.787 : en:01:24:43.787
01:29:40.667 : en:01:29:40.667
01:34:01.177 : en:01:34:01.177
01:37:10.450 : en:01:37:10.450
01:40:40.618 : en:01:40:40.618
01:44:29.054 : en:01:44:29.054
01:46:14.910 : en:01:46:14.910
01:48:55.821 : en:01:48:55.821


frame I:847 Avg QP:17.58 size:133766
frame P:32671 Avg QP:19.85 size: 72714
frame B:131373 Avg QP:21.38 size: 37135

Файл
Кодек: h.264
Качество: BDRip 720p
Видео: 1280x720 (16:9), 23.976 fps, AVC, ~8571 Kbps, 0.388 bits/pixel
Звук:
Русский, 48.0 KHz, AC3, 6 ch, 640 Kbps* Лицензия
Русский, 48.0 KHz, AC3, 6 ch, 384 Kbps R7
Английский, 48.0 KHz, AC3, 6 ch, 640 Kbps
*центральный канал получен наложением на центральный канал ориг. дорожки чистых голосов переводчиков
Субтитры:
Английские, PGS
Русский, SRT(UTF-8) (на основе лицензионных с BD25i)

BDRip720p
BDRemux1080p


Релиз от: Temperest
загрузка...
Правила, инструкции, FAQ!!!
Торрент  Добавлен [10 авг 2014, 00:58] Скачать торрент
Скачать торрент
[ Размер 21.14 КБ / Просмотров 9 ]

Статус
Проверен 
 
Размер  8.21 ГБ
Приватный: Нет (DHT включён)
.torrent скачан  242
Как залить торрент? | Как скачать Torrent? | Как смотреть и слушать онлайн?  


     Отправить личное сообщение
   
Страница 1 из 1
Показать сообщения за:  Поле сортировки  
Начать новую тему Ответить на тему

   Похожие торренты   Автор   Ответы   Просмотры   Последнее сообщение 
В этой теме нет новых непрочитанных сообщений. Скачать торрент Мечтатели / The Dreamers (2003) BDRip

в форуме Драмы, Мелодрамы, Размер: 2.18 ГБ, Здоровье: 100%

Anonymous

0
34|1

22
358

20 янв 2014, 14:33

Anonymous Перейти к последнему сообщению

В этой теме нет новых непрочитанных сообщений. Скачать торрент Проверен (Beat-Rock) Freddie & The Dreamers - The Two Faces of Freddie (and the Eight Faces of the Dreamers) - UK

в форуме Classic Rock & Hard Rock, Размер: 349.11 МБ, Здоровье: 0%

Anonymous

0
0|0

5
0

04 сен 2016, 21:00

Anonymous Перейти к последнему сообщению

В этой теме нет новых непрочитанных сообщений. Скачать торрент Проверен Азуми / Azumi (2003) BDRip 720p | P, L1

в форуме 720p | 1080p, Размер: 6.23 ГБ, Здоровье: 100%

Anonymous

0
10|0

36
227

10 авг 2014, 09:12

Anonymous Перейти к последнему сообщению

В этой теме нет новых непрочитанных сообщений. Скачать торрент Проверен Готика / Gothika (2003) BDRip 720p

в форуме 720p | 1080p, Размер: 3.74 ГБ, Здоровье: 100%

Anonymous

0
24|1

30
557

06 авг 2014, 16:21

Anonymous Перейти к последнему сообщению

В этой теме нет новых непрочитанных сообщений. Скачать торрент Проверен Час расплаты / Paycheck (2003) BDRip 720p

в форуме 720p | 1080p, Размер: 10.36 ГБ, Здоровье: 47%

Гость

0
39|82

29
26

30 ноя 2014, 02:39

Гость Перейти к последнему сообщению



Сейчас этот форум просматривают: нет зарегистрированных пользователей и гости: 3


Вы не можете начинать темы
Вы не можете отвечать на сообщения
Вы не можете редактировать свои сообщения
Вы не можете удалять свои сообщения
Вы не можете добавлять вложения

Перейти:  

!ВНИМАНИЕ!
 Ресурс не предоставляет электронные версии произведений, а занимается лишь коллекционированием и каталогизацией ссылок, присылаемых и публикуемых на форуме нашими читателями. Если вы являетесь правообладателем какого-либо представленного материала и не желаете чтобы ссылка на него находилась в нашем каталоге, свяжитесь с нами и мы незамедлительно удалим её. Файлы для обмена на трекере предоставлены пользователями сайта, и администрация не несёт ответственности за их содержание. Просьба не заливать файлы, защищенные авторскими правами, а также файлы нелегального содержания!