На всех торрентах на трекере установлена скидка на скачивание в размере 100 процентов(а).
 Возможность скачивания торрента НЕ зависит от ограничений при низком ратио, низком аплоаде, требуемом ратио или требуемом аплоаде.


Начать новую тему Ответить на тему
Статистика раздачи
Размер: 5.76 ГБ | Добавлен: 10 авг 2014, 00:46 | Скачали: 206
Сидеров: 11  [0 байт/сек]    Личеров: 0  [0 байт/сек]
Пред. тема | След. тема 

Автор
Сообщение

СообщениеДобавлено: 10 авг 2014, 00:46 

Информация о фильме
    Русское название: Герои Келли
    Оригинальное название: Kelly's Heroes
    Год выхода: 1970
    Жанр: Боевик, комедия, приключения, военный
    Режиссер: Брайан Дж. Хаттон
    Выпущено: США, Югославия
    Продолжительность: 02:23:31
    Перевод: Профессиональный (Многоголосый, закадровый)
    В ролях: Клинт Иствуд, Дональд Сазерленд, Телли Савалас, Дон Риклз, Кэррол О'Коннор, Гэвин МакЛауд, Хэл Баккли, Стюарт Марголин, Джеф Моррис, Ричард Давалос


Сюжет фильма
    Идет Вторая мировая война. Сержант американской армии Келли узнает от пленного немецкого офицера, что в тылу, на территории Германии есть банк с приличным запасом золота.
    Келли набирает группу отчаянных сорвиголов и грабит банк, причем сражение за золото перерастает в битву, чуть ли не решающую весь исход войны в Европе...


Файл
    Качество: BDRip 720p (исходник Blu-ray Disc Remux)
    Видео: 1280x534, 5038 Кбит/сек, 23,976 кадр/сек, AVC, x264, High@L4.1, 2.40:1, 0.307 Бит/[Пиксели*Кадры]
    Аудио 1: AC-3, 256 Кбит/сек, 2 канала(ов), 48,0 КГц - Многоголосый закадровый / Русский
    Аудио 2: AC-3, 448 Кбит/сек, 6 канала(ов), 48,0 КГц - Оригинал / Английский
    Субтитры: Русские | Полные, Английские | Полные
    Форсированные субтитры: Нет
    Чаптеры (Главы): Есть



Автор Рипа: Сообщество:



Format : Matroska
Format version : Version 2
File size : 5.76 GiB
Duration : 2h 23mn
Overall bit rate : 5 744 Kbps
Movie name : Герои Келли.(1970).BDRip.720p.[envy]
Encoded date : UTC 2014-08-09 18:50:31
Writing application : mkvmerge v5.8.0 ('No Sleep / Pillow') built on Sep 2 2012 15:37:04
Writing library : libebml v1.2.3 + libmatroska v1.3.0

Video
ID : 1
Format : AVC
Format/Info : Advanced Video Codec
Format profile : High@L4.1
Format settings, CABAC : Yes
Format settings, ReFrames : 11 frames
Codec ID : V_MPEG4/ISO/AVC
Duration : 2h 23mn
Bit rate : 5 038 Kbps
Width : 1 280 pixels
Height : 534 pixels
Display aspect ratio : 2.40:1
Frame rate mode : Constant
Frame rate : 23.976 fps
Color space : YUV
Chroma subsampling : 4:2:0
Bit depth : 8 bits
Scan type : Progressive
Bits/(Pixel*Frame) : 0.307
Stream size : 4.94 GiB (86%)
Title : Герои Келли.(1970).BDRip.720p.[envy]
Writing library : x264 core 142 r2453 ea0ca51
Encoding settings : cabac=1 / ref=11 / deblock=1:-3:-2 / analyse=0x3:0x113 / me=umh / subme=11 / psy=1 / psy_rd=1.00:0.00 / mixed_ref=1 / me_range=32 / chroma_me=1 / trellis=2 / 8x8dct=1 / cqm=0 / deadzone=21,11 / fast_pskip=0 / chroma_qp_offset=-2 / threads=12 / lookahead_threads=2 / sliced_threads=0 / nr=0 / decimate=1 / interlaced=0 / bluray_compat=0 / constrained_intra=0 / bframes=7 / b_pyramid=2 / b_adapt=2 / b_bias=0 / direct=3 / weightb=1 / open_gop=0 / weightp=2 / keyint=240 / keyint_min=23 / scenecut=40 / intra_refresh=0 / rc=2pass / mbtree=0 / bitrate=5038 / ratetol=2.0 / qcomp=0.60 / qpmin=0 / qpmax=69 / qpstep=4 / cplxblur=20.0 / qblur=0.5 / ip_ratio=1.40 / pb_ratio=1.30 / aq=2:1.00
Language : English
Default : Yes
Forced : No

Audio #1
ID : 2
Format : AC-3
Format/Info : Audio Coding 3
Format profile : Dolby Digital
Mode extension : CM (complete main)
Format settings, Endianness : Big
Codec ID : A_AC3
Duration : 2h 23mn
Bit rate mode : Constant
Bit rate : 256 Kbps
Channel(s) : 2 channels
Channel positions : Front: L R
Sampling rate : 48.0 KHz
Bit depth : 16 bits
Compression mode : Lossy
Stream size : 263 MiB (4%)
Title : MVO
Language : Russian
Default : Yes
Forced : No

Audio #2
ID : 3
Format : AC-3
Format/Info : Audio Coding 3
Mode extension : CM (complete main)
Format settings, Endianness : Big
Codec ID : A_AC3
Duration : 2h 23mn
Bit rate mode : Constant
Bit rate : 448 Kbps
Channel(s) : 6 channels
Channel positions : Front: L C R, Side: L R, LFE
Sampling rate : 48.0 KHz
Bit depth : 16 bits
Compression mode : Lossy
Stream size : 460 MiB (8%)
Title : Eng
Language : English
Default : No
Forced : No

Text #1
ID : 4
Format : UTF-8
Codec ID : S_TEXT/UTF8
Codec ID/Info : UTF-8 Plain Text
Title : full
Language : Russian
Default : No
Forced : No

Text #2
ID : 5
Format : UTF-8
Codec ID : S_TEXT/UTF8
Codec ID/Info : UTF-8 Plain Text
Title : full
Language : English
Default : No
Forced : No

Menu
00:00:00.000 : :Chapter 01
00:04:32.230 : :Chapter 02
00:08:47.944 : :Chapter 03
00:13:15.211 : :Chapter 04
00:20:57.673 : :Chapter 05
00:23:18.688 : :Chapter 06
00:27:37.364 : :Chapter 07
00:30:47.262 : :Chapter 08
00:32:38.748 : :Chapter 09
00:35:27.083 : :Chapter 10
00:39:28.364 : :Chapter 11
00:44:15.902 : :Chapter 12
00:49:42.938 : :Chapter 13
00:53:12.814 : :Chapter 14
00:57:42.792 : :Chapter 15
01:01:27.308 : :Chapter 16
01:05:30.968 : :Chapter 17
01:09:46.599 : :Chapter 18
01:15:30.524 : :Chapter 19
01:23:04.646 : :Chapter 20
01:26:54.667 : :Chapter 21
01:31:48.669 : :Chapter 22
01:34:22.113 : :Chapter 23
01:38:52.718 : :Chapter 24
01:42:05.536 : :Chapter 25
01:45:02.629 : :Chapter 26
01:49:21.054 : :Chapter 27
01:54:56.639 : :Chapter 28
01:58:23.012 : :Chapter 29
01:59:38.087 : :Chapter 30
02:01:17.770 : :Chapter 31
02:03:32.029 : :Chapter 32
02:05:32.775 : :Chapter 33
02:11:36.763 : :Chapter 34
02:14:12.711 : :Chapter 35
02:18:15.704 : :Chapter 36
02:20:35.802 : :Chapter 37




#777
загрузка...
Правила, инструкции, FAQ!!!
Торрент  Добавлен [10 авг 2014, 00:46] Скачать торрент
Скачать торрент
[ Размер 29.31 КБ / Просмотров 10 ]

Статус
Проверен 
 
Размер  5.76 ГБ
Приватный: Нет (DHT включён)
.torrent скачан  206
Как залить торрент? | Как скачать Torrent? | Как смотреть и слушать онлайн?  


     Отправить личное сообщение
   
Страница 1 из 1
Показать сообщения за:  Поле сортировки  
Начать новую тему Ответить на тему

   Похожие торренты   Автор   Ответы   Просмотры   Последнее сообщение 
В этой теме нет новых непрочитанных сообщений. Скачать торрент Проверен Шрек 2 в 3Д / Shrek 2 3D (Эндрю Адамсон, Келли Эсбёри / Andrew Adamson, Kelly Asbury) [2004 г., фэнтези, комедия, приключения, семейный, мультфильм, BDrip 720p] OverUnder / Вертикальная стереопара

в форуме 3D Мультфильмы, Размер: 5.51 ГБ, Здоровье: 0%

Anonymous

0
0|0

11
0

07 сен 2016, 17:44

Anonymous Перейти к последнему сообщению

В этой теме нет новых непрочитанных сообщений. Скачать торрент Проверен Почти герои / Almost Heroes (1998) WEB-DL 720p | D, P, A

в форуме 720p | 1080p, Размер: 3.48 ГБ, Здоровье: 100%

Гость

0
67|41

435
28

30 июл 2016, 13:54

Гость Перейти к последнему сообщению

В этой теме нет новых непрочитанных сообщений. Скачать торрент Проверен Банда Келли / Ned Kelly (2003) BDRip 1080p

в форуме 720p | 1080p, Размер: 7.99 ГБ, Здоровье: 100%

Anonymous

0
15|3

34
92

18 дек 2014, 23:34

Anonymous Перейти к последнему сообщению

В этой теме нет новых непрочитанных сообщений. Скачать торрент Посылка / The Box (Ричард Келли / Richard Kelly) [2009, Фантастика, триллер, драма, детектив, BDRip] Dub

в форуме Фантастика, Фэнтези, Размер: 1.46 ГБ, Здоровье: 100%

Anonymous

0
34|11

50
0

01 апр 2014, 09:33

Anonymous Перейти к последнему сообщению

В этой теме нет новых непрочитанных сообщений. Скачать торрент Донни Дарко / Donnie Darko (Ричард Келли / Richard Kelly) [2001 г., Триллер, драма, мистика, BDRip-AVC] [Театральная Версия]

в форуме Фантастика, Фэнтези, Размер: 2.05 ГБ, Здоровье: 100%

Anonymous

0
54|18

52
1

22 апр 2014, 11:39

Anonymous Перейти к последнему сообщению



Сейчас этот форум просматривают: нет зарегистрированных пользователей и гости: 4


Вы не можете начинать темы
Вы не можете отвечать на сообщения
Вы не можете редактировать свои сообщения
Вы не можете удалять свои сообщения
Вы не можете добавлять вложения

Перейти:  

!ВНИМАНИЕ!
 Ресурс не предоставляет электронные версии произведений, а занимается лишь коллекционированием и каталогизацией ссылок, присылаемых и публикуемых на форуме нашими читателями. Если вы являетесь правообладателем какого-либо представленного материала и не желаете чтобы ссылка на него находилась в нашем каталоге, свяжитесь с нами и мы незамедлительно удалим её. Файлы для обмена на трекере предоставлены пользователями сайта, и администрация не несёт ответственности за их содержание. Просьба не заливать файлы, защищенные авторскими правами, а также файлы нелегального содержания!