На всех торрентах на трекере установлена скидка на скачивание в размере 100 процентов(а).
 Возможность скачивания торрента НЕ зависит от ограничений при низком ратио, низком аплоаде, требуемом ратио или требуемом аплоаде.


Начать новую тему Ответить на тему
Статистика раздачи
Размер: 9.65 ГБ | Добавлен: 09 авг 2014, 21:27 | Скачали: 0
Сидеров: 23  [0 байт/сек]    Личеров: 1  [0 байт/сек]
Пред. тема | След. тема 

Автор
Сообщение

СообщениеДобавлено: 09 авг 2014, 21:27 

Год выпуска: 2013
Производство: США, Великобритания, Индия - Animal Logic, BBC Earth, BBC Worldwide, Evergreen Films, Reliance Big Entertainment
Жанр: Семейный
Перевод: Дублированный |лицензия Blu-Ray|
Язык субтитров: Русский, украинский, английский

Режиссер: Бэрри Кук, Нил Найтингейл / Barry Cook, Neil Nightingale
Актеры: Чарли Роу, Карл Урбан, Ангури Райс, Джон Легуизамо, Джастин Лонг, Скайлер Стоун, Тия Сиркар, Клэй Сэвадж, Джуд Тинсели, Мэри Мэтилин Маусер

Описание фильма:
«Прогулки с динозаврами» - это увлекательное путешествие с полным погружением в 3D-реальность, созданную по инновационной технологии CGI. Мы увидим, как выглядели динозавры, как они жили и с какими опасностями им пришлось столкнуться. Главный герой истории – храбрый динозаврик Патчи, он самый маленький в семье, но именно ему предстоит стать лидером и спасти своих сородичей.



Дата мировой премьеры: 14 декабря 2013
Дата украинской премьеры: 19 декабря 2013, «Ukrainian Film Distribution»
Дата выхода DVD релиза: 18 сентября 2014, «Двадцатый Век Фокс СНГ»

Продолжительность: 01:27:23
Качество видео: BDRip 1080p

Видеокодек: MPEG-4 AVC/H.264
Видео: H264, 12.3 Мбит/с, 1920x802, 23.976 кадр/с
Аудио #1: Русский: DTS, 5.1, 768 Кбит/с, 48kHz, 16 bit
Аудио #2: Украинский: AC3, 5.1, 448 Кбит/с, 48kHz, 16 bit
Аудио #3: Английский: DTS, 5.1, 1536 Кбит/с, 48 kHz, 24 bit
Аудио #4: Английский: AC3, 5.1, 448 Кбит/с, 48kHz, 16 bit - комментарии

Сохранены оригинальные чаптеры как на Blu-Ray

Релиз от
• В исследовании, опубликованном в декабре 2013 года, буквально за несколько дней до выхода фильма в прокат, говорится о том, что у эдмонтозавров было что-то в духе «мясистой бородки» или гребня на голове. У моделей в фильме естественно не хватает этой детали.
• Хотя тот факт, что у маленьких хищных динозавров были перья, был известен с конца девяностых годов, это один из первых фильмов, в котором показали таких динозавров. Первый фильм, в котором показали хищников с перьями, был «Парк Юрского периода 3» (2001). Также перья могли появиться в мультфильме «Динозавр» (2000), но ограничения по бюджету и по возможностям анимации на тот момент заставили создателей отказаться от этой идеи.
• Режиссер-аниматор Марко Маренги работал аниматором и в оригинальном сериале «BBC: Прогулки с динозаврами» (1999).
• Тираннозавры в этом фильме чешуйчатые, потому что их модели были сделаны еще до того, как произошло открытие гигантского пернатого ютираннуса.
А мне фильм понравился!

Сразу оговорюсь: единственный факт, который я знаю о динозаврах — то что они были огромные и громко рычали. И с этой точки зрения фильм очень классный!

Благодаря этому фильму я услышала много непроизносимых названий динозавров, которые впрочем совершенно не запомнила.

Вообще, не смотря на то что этот фильм производства ВВС, это скорее фильм-сказка. Некое красивое фэнтези.

Это очень трогательная история самого маленького динозаврика, с дефектом, который, впрочем стал очень важным, благодаря большой отваге.

Сюжет никакой: борьба за выживание во время миграции. Но про диких животных сюжета и не придумать, стоит посмотреть любой фильм по Animal Planet: едят, спят и стараются не умереть.

Немного покоробило то как говорят динозавры — с закрытыми ртами. Я ожидала разговоры в стиле Бэйба — с мимикой. При чем говорят далеко не все. Из огромного количества разных динозавров говорят только: главный герой, его брат, подруга героя и друг героя. Всего 4 персонажа. Те же мама и папа героя только рычат.

Рассказчиком является предок современного ворона — Алекс. Очень своеобразный персонаж: перебивает, ржет, дает не нужные комментарии. Персонаж явно лишний.

Я бы не стала вести на этот фильм школьников, как часть программы по истории.

Но за красивые пейзажи и классную графику

10 из 10
Общее
Уникальный идентификатор : 196462667775435456065391613922671386788 (0x93CD555F186EABE5B0D59CA76650E0A4)
Полное имя : D:\Video\Walking.With.Dinosaurs.2013.1080p.BluRay.Rus.Ukr.Eng.mkv
Формат : Matroska
Версия формата : Version 2
Размер файла : 9,65 Гбайт
Продолжительность : 1 ч. 27 м.
Общий поток : 15,8 Мбит/сек
Название фильма : Walking with Dinosaurs (2013) - Release for HDCLUB
Дата кодирования : UTC 2014-03-31 18:50:35
Программа кодирования : mkvmerge v5.5.0 ('Healer') built on Apr 6 2012 21:43:24
Библиотека кодирования : libebml v1.2.3 + libmatroska v1.3.0

Видео
Идентификатор : 1
Формат : AVC
Формат/Информация : Advanced Video Codec
Профиль формата :
Параметр CABAC формата : Да
Параметр ReFrames формата : 4 кадра
Идентификатор кодека : V_MPEG4/ISO/AVC
Продолжительность : 1 ч. 27 м.
Битрейт : 12,3 Мбит/сек
Ширина : 1920 пикселей
Высота : 802 пикселя
Соотношение сторон : 2,40:1
Режим частоты кадров : Постоянный
Частота кадров : 23,976 кадра/сек
Цветовое пространство : YUV
Субдискретизация насыщенности : 4:2:0
Битовая глубина : 8 бит
Тип развёртки : Прогрессивная
Бит/(Пиксели*Кадры) : 0.334
Размер потока : 7,52 Гбайт (78%)
Заголовок : Walking with Dinosaurs (2013) - Release for HDCLUB
Библиотека кодирования : x264 core 138 r2359+704+48 3f879a0 tMod [8-bit@all X86_64]
Настройки программы : cabac=1 / ref=4 / deblock=1:-3:-3 / analyse=0x3:0x113 / me=tesa / subme=11 / psy=1 / fade_compensate=0.00 / psy_rd=1.00:0.08 / mixed_ref=1 / me_range=32 / chroma_me=1 / trellis=2 / 8x8dct=1 / cqm=0 / deadzone=21,11 / fast_pskip=0 / chroma_qp_offset=-3 / threads=6 / lookahead_threads=1 / sliced_threads=0 / nr=0 / decimate=0 / interlaced=0 / bluray_compat=0 / constrained_intra=0 / fgo=0 / bframes=8 / b_pyramid=2 / b_adapt=2 / b_bias=0 / direct=1 / weightb=1 / open_gop=0 / weightp=2 / keyint=240 / keyint_min=23 / scenecut=40 / intra_refresh=0 / rc_lookahead=60 / rc=crf / mbtree=0 / crf=17.8800 / qcomp=0.70 / qpmin=0:0:0 / qpmax=69:69:69 / qpstep=4 / vbv_maxrate=62500 / vbv_bufsize=78125 / crf_max=0.0 / nal_hrd=none / ip_ratio=1.30 / pb_ratio=1.20 / aq=3:0.75 / aq-sensitivity=10.00 / aq-factor=1.00:1.00:1.00 / aq2=0 / aq3=0
Язык : English
Default : Да
Forced : Нет

Аудио #1
Идентификатор : 2
Формат : DTS
Формат/Информация : Digital Theater Systems
Режим : 16
Параметр Endianness формата : Big
Идентификатор кодека : A_DTS
Продолжительность : 1 ч. 27 м.
Вид битрейта : Постоянный
Битрейт : 768 Кбит/сек
Каналы : 6 каналов
Расположение каналов : Front: L C R, Side: L R, LFE
Частота : 48,0 КГц
Битовая глубина : 24 бит
Метод сжатия : С потерями
Размер потока : 480 Мбайт (5%)
Заголовок : Dub, Blu-Ray
Язык : Russian
Default : Да
Forced : Нет

Аудио #2
Идентификатор : 3
Формат : AC-3
Формат/Информация : Audio Coding 3
Расширение режима : CM (complete main)
Параметр Endianness формата : Big
Идентификатор кодека : A_AC3
Продолжительность : 1 ч. 27 м.
Вид битрейта : Постоянный
Битрейт : 448 Кбит/сек
Каналы : 6 каналов
Расположение каналов : Front: L C R, Side: L R, LFE
Частота : 48,0 КГц
Битовая глубина : 16 бит
Метод сжатия : С потерями
Размер потока : 280 Мбайт (3%)
Заголовок : Dub, Blu-Ray
Язык : Ukrainian
Default : Нет
Forced : Нет

Аудио #3
Идентификатор : 4
Формат : DTS
Формат/Информация : Digital Theater Systems
Режим : 16
Параметр Endianness формата : Big
Идентификатор кодека : A_DTS
Продолжительность : 1 ч. 27 м.
Вид битрейта : Постоянный
Битрейт : 1509 Кбит/сек
Каналы : 6 каналов
Расположение каналов : Front: L C R, Side: L R, LFE
Частота : 48,0 КГц
Битовая глубина : 24 бит
Метод сжатия : С потерями
Размер потока : 943 Мбайт (10%)
Заголовок : Original
Язык : English
Default : Нет
Forced : Нет

Аудио #4
Идентификатор : 5
Формат : AC-3
Формат/Информация : Audio Coding 3
Расширение режима : CM (complete main)
Параметр Endianness формата : Big
Идентификатор кодека : A_AC3
Продолжительность : 1 ч. 27 м.
Вид битрейта : Постоянный
Битрейт : 448 Кбит/сек
Каналы : 6 каналов
Расположение каналов : Front: L C R, Side: L R, LFE
Частота : 48,0 КГц
Битовая глубина : 16 бит
Метод сжатия : С потерями
Размер потока : 280 Мбайт (3%)
Заголовок : Descriptive
Язык : English
Default : Нет
Forced : Нет

Текст #1
Идентификатор : 6
Формат : UTF-8
Идентификатор кодека : S_TEXT/UTF8
Идентификатор кодека/Информация : UTF-8 Plain Text
Язык : Russian
Default : Нет
Forced : Нет

Текст #2
Идентификатор : 7
Формат : UTF-8
Идентификатор кодека : S_TEXT/UTF8
Идентификатор кодека/Информация : UTF-8 Plain Text
Язык : Ukrainian
Default : Нет
Forced : Нет

Текст #3
Идентификатор : 8
Формат : UTF-8
Идентификатор кодека : S_TEXT/UTF8
Идентификатор кодека/Информация : UTF-8 Plain Text
Язык : English
Default : Нет
Forced : Нет

Текст #4
Идентификатор : 9
Формат : UTF-8
Идентификатор кодека : S_TEXT/UTF8
Идентификатор кодека/Информация : UTF-8 Plain Text
Заголовок : SDH
Язык : English
Default : Нет
Forced : Нет

Меню
00:00:00.000 : :Chapter 1
00:01:44.771 : :Chapter 2
00:05:21.196 : :Chapter 3
00:07:27.989 : :Chapter 4
00:12:06.351 : :Chapter 5
00:14:47.220 : :Chapter 6
00:17:04.190 : :Chapter 7
00:18:30.609 : :Chapter 8
00:21:47.389 : :Chapter 9
00:24:30.761 : :Chapter 10
00:27:07.459 : :Chapter 11
00:28:28.206 : :Chapter 12
00:30:40.756 : :Chapter 13
00:32:58.643 : :Chapter 14
00:37:38.006 : :Chapter 15
00:42:02.562 : :Chapter 16
00:44:00.096 : :Chapter 17
00:47:36.103 : :Chapter 18
00:50:59.473 : :Chapter 19
00:52:51.043 : :Chapter 20
00:56:49.281 : :Chapter 21
00:58:20.997 : :Chapter 22
01:02:48.973 : :Chapter 23
01:06:45.627 : :Chapter 24
01:10:40.319 : :Chapter 25
01:16:54.485 : :Chapter 26
01:18:40.466 : :Chapter 27
01:20:15.811 : :Chapter 28
Скриншоты:


загрузка...
Правила, инструкции, FAQ!!!
Торрент  Добавлен [09 авг 2014, 21:27] Скачать торрент
Скачать торрент
[ Размер 49.02 КБ / Просмотров 7 ]

Статус
Проверен 
 
Размер  9.65 ГБ
Приватный: Нет (DHT включён)
.torrent скачан  0
Как залить торрент? | Как скачать Torrent? | Как смотреть и слушать онлайн?  


     Отправить личное сообщение
   
Страница 1 из 1
Показать сообщения за:  Поле сортировки  
Начать новую тему Ответить на тему

   Похожие торренты   Автор   Ответы   Просмотры   Последнее сообщение 
В этой теме нет новых непрочитанных сообщений. Скачать торрент Прогулки с динозаврами 3D / Walking with Dinosaurs 3D (2013) BDRip 1080p от Ash61 | 3D-Video | halfOU

в форуме HD-Video в 3D, Размер: 9.64 ГБ, Здоровье: 100%

Anonymous

0
168|16

113
1666

15 мар 2014, 08:06

Anonymous Перейти к последнему сообщению

В этой теме нет новых непрочитанных сообщений. Скачать торрент Проверен Прогулки с динозаврами 3D / Walking with Dinosaurs 3D (2013) BDRemux 3D [1080p] [3D/2D]

в форуме BD-Remux, Размер: 26.44 ГБ, Здоровье: ???%

Anonymous

0
0|1

173
2

09 авг 2014, 21:27

Anonymous Перейти к последнему сообщению

В этой теме нет новых непрочитанных сообщений. Скачать торрент Прогулки с динозаврами 3D / Walking with Dinosaurs 3D (2014) BDRip | Лицензия

в форуме Детское, Семейное кино, Размер: 1.37 ГБ, Здоровье: 0%

Anonymous

0
0|0

131
0

14 мар 2014, 11:38

Anonymous Перейти к последнему сообщению

В этой теме нет новых непрочитанных сообщений. Скачать торрент Проверен Прогулки с динозаврами / Walking with Dinosaurs (2013) HDRip

в форуме Детское, Семейное кино, Размер: 1.37 ГБ, Здоровье: 100%

Anonymous

0
42|1

86
1

09 авг 2014, 21:28

Anonymous Перейти к последнему сообщению

В этой теме нет новых непрочитанных сообщений. Скачать торрент Проверен Прогулки с динозаврами / Walking with Dinosaurs (2013) HDRip

в форуме Детское, Семейное кино, Размер: 699.72 МБ, Здоровье: 100%

Anonymous

0
7|1

101
0

09 авг 2014, 21:28

Anonymous Перейти к последнему сообщению



Сейчас этот форум просматривают: нет зарегистрированных пользователей и гости: 4


Вы не можете начинать темы
Вы не можете отвечать на сообщения
Вы не можете редактировать свои сообщения
Вы не можете удалять свои сообщения
Вы не можете добавлять вложения

Перейти:  

!ВНИМАНИЕ!
 Ресурс не предоставляет электронные версии произведений, а занимается лишь коллекционированием и каталогизацией ссылок, присылаемых и публикуемых на форуме нашими читателями. Если вы являетесь правообладателем какого-либо представленного материала и не желаете чтобы ссылка на него находилась в нашем каталоге, свяжитесь с нами и мы незамедлительно удалим её. Файлы для обмена на трекере предоставлены пользователями сайта, и администрация не несёт ответственности за их содержание. Просьба не заливать файлы, защищенные авторскими правами, а также файлы нелегального содержания!