На всех торрентах на трекере установлена скидка на скачивание в размере 100 процентов(а).
 Возможность скачивания торрента НЕ зависит от ограничений при низком ратио, низком аплоаде, требуемом ратио или требуемом аплоаде.


Начать новую тему Ответить на тему
Статистика раздачи
Размер: 3.38 ГБ | Добавлен: 06 авг 2014, 18:02 | Скачали: 336
Сидеров: 5  [0 байт/сек]    Личеров: 1  [0 байт/сек]
Пред. тема | След. тема 

Автор
Сообщение

СообщениеДобавлено: 06 авг 2014, 18:02 

Название: Сумасшедший вид любви
Оригинальное название: Crazy Kind of Love
Год выхода: 2013
Жанр: драма, мелодрама, комедия
Режиссер: Сара Сигель-Магнесс

В ролях: Вирджиния Мэдсен, Сэм Трэммелл, Зак Гилфорд, Аманда Крю, Грэхэм Роджерс, Мадлен Зима, Кристоффер Райан Уинтерс, Энтони ЛаПалья, Элисон Мичалка, Лин Шэй

О фильме: Семья Августы разваливается после того, как она выгнала мужа из дома за интрижку на стороне. Однако вскоре в жизнь семьи врывается Бетти, подружка одного из сыновей, и переворачивает их жизнь с ног на голову, выводя семью из коматозного состояния.



Выпущено: США
Продолжительность: 01:26:15
Перевод: Любительский (одноголосый, закадровый) - ViruseProject

Качество: BDRip 1080p
Формат: MKV
Видео: MPEG4/AVC, 1920х800 (2.40:1), 4659 Кбит/сек, 25.000 кадров/сек
Аудио 1: AC3, 6 каналов, 384 Кбит/сек | Русский
Аудио 2: AC3, 6 каналов, 448 Кбит/сек | Английский
Навигация по главам: Есть
Общее
Уникальный идентификатор : 235379593632021145782871556518156394616 (0xB11475F4D989FBC98BFD36DCBB7B6078)
Полное имя : Crazy Kind of Love. (2013) BDRip 1080p.mkv
Формат : Matroska
Версия формата : Version 2
Размер файла : 3,38 Гбайт
Продолжительность : 1 ч. 26 м.
Общий поток : 5602 Кбит/сек
Название фильма : Crazy Kind of Love. 2013
Дата кодирования : UTC 2014-08-06 10:58:07
Программа кодирования : mkvmerge v5.8.0 ('No Sleep / Pillow') built on Sep 2 2012 15:37:04
Библиотека кодирования : libebml v1.2.3 + libmatroska v1.3.0
Видео
Идентификатор : 1
Формат : AVC
Формат/Информация : Advanced Video Codec
Профиль формата : High@L4.1
Параметр CABAC формата : Да
Параметр ReFrames формата : 5 кадров
Идентификатор кодека : V_MPEG4/ISO/AVC
Продолжительность : 1 ч. 26 м.
Битрейт : 4659 Кбит/сек
Ширина : 1920 пикселей
Высота : 800 пикселей
Соотношение сторон : 2,40:1
Режим частоты кадров : Постоянный
Частота кадров : 25,000 кадров/сек
Цветовое пространство : YUV
Субдискретизация насыщенности : 4:2:0
Битовая глубина : 8 бит
Тип развёртки : Прогрессивная
Бит/(Пиксели*Кадры) : 0.121
Размер потока : 2,81 Гбайт (83%)
Заголовок : RARBG
Библиотека кодирования : x264 core 140 r2377 1ca7bb9
Настройки программы : cabac=1 / ref=5 / deblock=1:-1:-1 / analyse=0x3:0x133 / me=umh / subme=7 / psy=1 / psy_rd=1.00:0.15 / mixed_ref=1 / me_range=16 / chroma_me=1 / trellis=1 / 8x8dct=1 / cqm=0 / deadzone=21,11 / fast_pskip=0 / chroma_qp_offset=-3 / threads=12 / lookahead_threads=2 / sliced_threads=0 / nr=0 / decimate=1 / interlaced=0 / bluray_compat=0 / constrained_intra=0 / bframes=3 / b_pyramid=2 / b_adapt=1 / b_bias=0 / direct=3 / weightb=1 / open_gop=0 / weightp=2 / keyint=250 / keyint_min=25 / scenecut=40 / intra_refresh=0 / rc_lookahead=40 / rc=crf / mbtree=1 / crf=20.0 / qcomp=0.60 / qpmin=10 / qpmax=69 / qpstep=4 / ip_ratio=1.40 / aq=1:1.00
Язык : English
Default : Да
Forced : Нет
Аудио #1
Идентификатор : 2
Формат : AC-3
Формат/Информация : Audio Coding 3
Расширение режима : CM (complete main)
Параметр Endianness формата : Big
Идентификатор кодека : A_AC3
Продолжительность : 1 ч. 26 м.
Вид битрейта : Постоянный
Битрейт : 384 Кбит/сек
Каналы : 6 каналов
Расположение каналов : Front: L C R, Side: L R, LFE
Частота : 48,0 КГц
Битовая глубина : 16 бит
Метод сжатия : С потерями
Размер потока : 237 Мбайт (7%)
Заголовок : L1 | ViruseProject
Язык : Russian
Default : Да
Forced : Нет
Аудио #2
Идентификатор : 3
Формат : AC-3
Формат/Информация : Audio Coding 3
Расширение режима : CM (complete main)
Параметр Endianness формата : Big
Идентификатор кодека : A_AC3
Продолжительность : 1 ч. 26 м.
Вид битрейта : Постоянный
Битрейт : 448 Кбит/сек
Каналы : 6 каналов
Расположение каналов : Front: L C R, Side: L R, LFE
Частота : 48,0 КГц
Битовая глубина : 16 бит
Метод сжатия : С потерями
Размер потока : 276 Мбайт (8%)
Заголовок : Eng
Язык : English
Default : Нет
Forced : Нет
Меню
00:00:00.000 : en:00:00:00.000
00:07:23.239 : en:00:07:23.239
00:13:32.960 : en:00:13:32.960
00:21:27.960 : en:00:21:27.960
00:27:53.040 : en:00:27:53.040
00:35:12.000 : en:00:35:12.000
00:42:05.600 : en:00:42:05.600
00:50:07.400 : en:00:50:07.400
00:56:43.760 : en:00:56:43.760
01:04:08.840 : en:01:04:08.840
01:11:18.960 : en:01:11:18.960
01:18:32.040 : en:01:18:32.040


Релиз от:
загрузка...
Правила, инструкции, FAQ!!!
Торрент  Добавлен [06 авг 2014, 18:02] Скачать торрент
Скачать торрент
[ Размер 17.61 КБ / Просмотров 9 ]

Статус
Проверен 
 
Размер  3.38 ГБ
Приватный: Нет (DHT включён)
.torrent скачан  336
Как залить торрент? | Как скачать Torrent? | Как смотреть и слушать онлайн?  


     Отправить личное сообщение
   
Страница 1 из 1
Показать сообщения за:  Поле сортировки  
Начать новую тему Ответить на тему

   Похожие торренты   Автор   Ответы   Просмотры   Последнее сообщение 
В этой теме нет новых непрочитанных сообщений. Скачать торрент Проверен Сумасшедший вид любви / Crazy Kind of Love (2013) HDRip | L1

в форуме Драмы, Мелодрамы, Размер: 1.46 ГБ, Здоровье: 100%

Anonymous

0
118|3

37
2851

30 июл 2014, 21:24

Anonymous Перейти к последнему сообщению

В этой теме нет новых непрочитанных сообщений. Скачать торрент Проверен Новый вид любви / A New Kind of Love (1963) DVDRip [H.264] [VO]

в форуме Драмы, Мелодрамы, Размер: 1.45 ГБ, Здоровье: 100%

Anonymous

0
25|1

56
0

04 авг 2014, 09:28

Anonymous Перейти к последнему сообщению

В этой теме нет новых непрочитанных сообщений. Скачать торрент Проверен Анатомия любви / Endless Love (2014) BDRip 1080p | iTunes

в форуме 720p | 1080p, Размер: 7.93 ГБ, Здоровье: 0%

Anonymous

0
0|0

26
0

22 май 2014, 06:17

Anonymous Перейти к последнему сообщению

В этой теме нет новых непрочитанных сообщений. Скачать торрент Проверен Застрял в любви / Stuck in Love (2012) BDRemux 1080p | L

в форуме BD-Remux, Размер: 16.67 ГБ, Здоровье: 50%

Anonymous

0
1|2

178
0

09 ноя 2014, 20:11

Anonymous Перейти к последнему сообщению

В этой теме нет новых непрочитанных сообщений. Скачать торрент Проверен Metallica - Some Kind Of Monster [2014, Thrash Metal, Documentary, BDRip 1080p]

в форуме Концерты (HD-Video), Размер: 9.83 ГБ, Здоровье: 100%

Anonymous

0
9|3

1
0

23 окт 2016, 15:55

Anonymous Перейти к последнему сообщению



Сейчас этот форум просматривают: нет зарегистрированных пользователей и гости: 1


Вы не можете начинать темы
Вы не можете отвечать на сообщения
Вы не можете редактировать свои сообщения
Вы не можете удалять свои сообщения
Вы не можете добавлять вложения

Перейти:  

!ВНИМАНИЕ!
 Ресурс не предоставляет электронные версии произведений, а занимается лишь коллекционированием и каталогизацией ссылок, присылаемых и публикуемых на форуме нашими читателями. Если вы являетесь правообладателем какого-либо представленного материала и не желаете чтобы ссылка на него находилась в нашем каталоге, свяжитесь с нами и мы незамедлительно удалим её. Файлы для обмена на трекере предоставлены пользователями сайта, и администрация не несёт ответственности за их содержание. Просьба не заливать файлы, защищенные авторскими правами, а также файлы нелегального содержания!