На всех торрентах на трекере установлена скидка на скачивание в размере 100 процентов(а).
 Возможность скачивания торрента НЕ зависит от ограничений при низком ратио, низком аплоаде, требуемом ратио или требуемом аплоаде.


Начать новую тему Ответить на тему
Статистика раздачи
Размер: 2.65 ГБ | Добавлен: 27 фев 2013, 13:16 | Скачали: 1
Сидеров: 0  [0 байт/сек]    Личеров: 0  [0 байт/сек]
Пред. тема | След. тема 

Автор
Сообщение

СообщениеДобавлено: 27 фев 2013, 13:16 

Потерпевший / Крушение / Wrecked



Название: Потерпевший / Крушение
Год выхода: 2010
Жанр: Триллер, драма, детектив, приключения
Режиссер: Майкл Гринспен

В фильме снимались: Эдриан Броуди, Каролин Давернас, Райан Роббинс, Адриан Холмс, Джейкоб Блэр, Марк МакКончи

Вкратце:
Он пришел в сознание в раскореженном авто где то в джунглях. Машина изуродована, у него сломана нога, рядом с ним лежат трупы, он потерял память и да же не помнит как его зовут. Везде глухие джунгли и тишина. Теперь его задачей стоит выжить, вспомнить все, и спасти полную сумку денег лежащюю в багажнике. Его будут преследовать и пытаться убить...



Страна: США, Канада, Independent Edge FIlms, Telefilm Canada - Equity Investment Program, Wrecked Productions
Продолжительность: 01:29:51
Перевод: Профессиональный многоголосый, любительский одноголосый
Субтитры: Русские, английские
Дата релиза: 27.02.2013

Формат: mkv
Кодек: H.264
Качество: BDRip (AVC) (Blu-Ray Remux (1080p))
Видео: MPEG-4 AVC, 2559 Кбит/с, 1024x426
Звук:
Аудио №1: Русский (AC3, 6 ch, 384 Кбит/с) - многоголосый (R5)
Аудио №2: Русский (AC3, 2 ch, 192 Кбит/с) - многоголосый (НТВ+)
Аудио №3: Русский (AC3, 6 ch, 448 Кбит/с) - одноголосый (R1shpil)
Аудио №4: Украинский (AC3, 2 ch, 192 Кбит/с) - двухголосый (UAVoice)
Аудио №5: Английский (AC3, 6 ch, 448 Кбит/с)

Общее
Уникальный идентификатор : 227461672524130058132339168181014701549 (0xAB1F864E3F5E160CBD3E9B91464F25ED)
Полное имя : D:3Poterpevshij.2010.x264.BDRip.(AVC).ExKinoRay.mkv
Формат : Matroska
Версия формата : Version 2
Размер файла : 2,65 Гбайт
Продолжительность : 1 ч. 29 м.
Общий поток : 4220 Кбит/сек
Название фильма : Poterpevshij.2010.x264.BDRip.(AVC).ExKinoRay
Дата кодирования : UTC 2013-02-27 08:02:43
Программа кодирования : mkvmerge v4.0.0 ('The Stars were mine') сборка от Jun 6 2010 16:18:42
Библиотека кодирования : libebml v1.0.0 + libmatroska v1.0.0

Видео
Идентификатор : 1
Формат : AVC
Формат/Информация : Advanced Video Codec
Профиль формата : High@L4.1
Параметр CABAC формата : Да
Параметр ReFrames формата : 8 кадров
Идентификатор кодека : V_MPEG4/ISO/AVC
Продолжительность : 1 ч. 29 м.
Битрейт : 2559 Кбит/сек
Ширина : 1024 пикселя
Высота : 426 пикселей
Соотношение сторон : 2,40:1
Частота кадров : 23,976 кадра/сек
Цветовое пространство : YUV
Субдискретизация насыщенности : 4:2:0
Битовая глубина : 8 бит
Тип развёртки : Прогрессивная
Бит/(Пиксели*Кадры) : 0.245
Размер потока : 1,55 Гбайт (59%)
Заголовок : Rip by Enigma-Vladislav71
Библиотека кодирования : x264 core 129 r2245 bc13772
Настройки программы : cabac=1 / ref=8 / deblock=1:-2:-2 / analyse=0x3:0x133 / me=umh / subme=11 / psy=1 / psy_rd=1.00:0.00 / mixed_ref=1 / me_range=48 / chroma_me=1 / trellis=2 / 8x8dct=1 / cqm=0 / deadzone=21,11 / fast_pskip=0 / chroma_qp_offset=-2 / threads=3 / lookahead_threads=1 / sliced_threads=0 / nr=0 / decimate=0 / interlaced=0 / bluray_compat=0 / constrained_intra=0 / bframes=8 / b_pyramid=2 / b_adapt=2 / b_bias=0 / direct=3 / weightb=1 / open_gop=0 / weightp=2 / keyint=240 / keyint_min=23 / scenecut=40 / intra_refresh=0 / rc_lookahead=40 / rc=2pass / mbtree=1 / bitrate=2559 / ratetol=1.0 / qcomp=0.60 / qpmin=10 / qpmax=51 / qpstep=4 / cplxblur=20.0 / qblur=0.5 / ip_ratio=1.40 / aq=2:1.00
Язык : English

Аудио #1
Идентификатор : 2
Формат : AC-3
Формат/Информация : Audio Coding 3
Расширение режима : CM (complete main)
Идентификатор кодека : A_AC3
Продолжительность : 1 ч. 29 м.
Вид битрейта : Постоянный
Битрейт : 384 Кбит/сек
Каналы : 6 каналов
Расположение каналов : Front: L C R, Side: L R, LFE
Частота : 48,0 КГц
Битовая глубина : 16 бит
Метод сжатия : С потерями
Размер потока : 247 Мбайт (9%)
Заголовок : Многоголосый (R5)
Язык : Russian

Аудио #2
Идентификатор : 3
Формат : AC-3
Формат/Информация : Audio Coding 3
Расширение режима : CM (complete main)
Идентификатор кодека : A_AC3
Продолжительность : 1 ч. 29 м.
Вид битрейта : Постоянный
Битрейт : 192 Кбит/сек
Каналы : 2 канала
Расположение каналов : Front: L R
Частота : 48,0 КГц
Битовая глубина : 16 бит
Метод сжатия : С потерями
Размер потока : 123 Мбайт (5%)
Заголовок : Многоголосый (НТВ+)
Язык : Russian

Аудио #3
Идентификатор : 4
Формат : AC-3
Формат/Информация : Audio Coding 3
Расширение режима : CM (complete main)
Идентификатор кодека : A_AC3
Продолжительность : 1 ч. 29 м.
Вид битрейта : Постоянный
Битрейт : 448 Кбит/сек
Каналы : 6 каналов
Расположение каналов : Front: L C R, Side: L R, LFE
Частота : 48,0 КГц
Битовая глубина : 16 бит
Метод сжатия : С потерями
Размер потока : 288 Мбайт (11%)
Заголовок : Одноголосый (R1shpil)
Язык : Russian

Аудио #4
Идентификатор : 5
Формат : AC-3
Формат/Информация : Audio Coding 3
Расширение режима : CM (complete main)
Идентификатор кодека : A_AC3
Продолжительность : 1 ч. 29 м.
Вид битрейта : Постоянный
Битрейт : 192 Кбит/сек
Каналы : 2 канала
Расположение каналов : Front: L R
Частота : 48,0 КГц
Битовая глубина : 16 бит
Метод сжатия : С потерями
Размер потока : 123 Мбайт (5%)
Заголовок : Двухголосый (UAVoice) - украинский

Аудио #5
Идентификатор : 6
Формат : AC-3
Формат/Информация : Audio Coding 3
Расширение режима : CM (complete main)
Идентификатор кодека : A_AC3
Продолжительность : 1 ч. 29 м.
Вид битрейта : Постоянный
Битрейт : 448 Кбит/сек
Каналы : 6 каналов
Расположение каналов : Front: L C R, Side: L R, LFE
Частота : 48,0 КГц
Битовая глубина : 16 бит
Метод сжатия : С потерями
Размер потока : 288 Мбайт (11%)
Заголовок : Английский
Язык : English

Текст #1
Идентификатор : 7
Формат : UTF-8
Идентификатор кодека : S_TEXT/UTF8
Идентификатор кодека/Информация : UTF-8 Plain Text
Язык : Russian

Текст #2
Идентификатор : 8
Формат : UTF-8
Идентификатор кодека : S_TEXT/UTF8
Идентификатор кодека/Информация : UTF-8 Plain Text
Язык : English

Меню
00:00:00.000 : en:Chapter 01
00:05:00.000 : en:Chapter 02
00:10:00.000 : en:Chapter 03
00:15:00.000 : en:Chapter 04
00:20:00.000 : en:Chapter 05
00:25:00.000 : en:Chapter 06
00:30:00.000 : en:Chapter 07
00:35:00.000 : en:Chapter 08
00:40:00.000 : en:Chapter 09
00:45:00.000 : en:Chapter 10
00:50:00.000 : en:Chapter 11
00:55:00.000 : en:Chapter 12
01:00:00.000 : en:Chapter 13
01:05:00.000 : en:Chapter 14
01:10:00.000 : en:Chapter 15
01:15:00.000 : en:Chapter 16
01:20:00.000 : en:Chapter 17
01:25:00.000 : en:Chapter 18





загрузка...
Правила, инструкции, FAQ!!!
Торрент  Добавлен [27 фев 2013, 13:16] Скачать торрент
Скачать торрент
[ Размер 13.82 КБ / Просмотров 7 ]

Статус  
 
Размер  2.65 ГБ
Приватный: Нет (DHT включён)
.torrent скачан  1
Как залить торрент? | Как скачать Torrent? | Как смотреть и слушать онлайн?  


     Отправить личное сообщение
   
Страница 1 из 1
Показать сообщения за:  Поле сортировки  
Начать новую тему Ответить на тему

   Похожие торренты   Автор   Ответы   Просмотры   Последнее сообщение 
В этой теме нет новых непрочитанных сообщений. Скачать торрент Проверен [iPad] Крушение / Wrecked [2010, США, Канада, Триллер, драма, детектив, приключения, BDRip, 576p] MVO + Original + sub (rus, eng)

в форуме Фильмы для iPod, iPhone, iPad, Размер: 1.53 ГБ, Здоровье: 100%

Anonymous

0
3|1

32
0

13 май 2015, 23:58

Anonymous Перейти к последнему сообщению

В этой теме нет новых непрочитанных сообщений. Скачать торрент Проверен [iPad] Кибер / Blackhat (Майкл Манн / Michael Mann ) [2015, США, Боевик, триллер, драма, криминал, детектив, BDRip, SD (576p)] DUB + Original + sub (eng)

в форуме Фильмы для iPod, iPhone, iPad, Размер: 2.35 ГБ, Здоровье: 100%

Гость

0
94|18

117
2

11 май 2015, 01:25

Гость Перейти к последнему сообщению

В этой теме нет новых непрочитанных сообщений. Скачать торрент Шерлок Холмс / Sherlock Holmes (Гай Ричи / Guy Ritchie) [2009 г., Боевик, триллер, комедия, драма, приключения, криминал, детектив, BDRip-AVC]

в форуме 720p | 1080p, Размер: 1.64 ГБ, Здоровье: 100%

Anonymous

0
34|11

78
0

17 фев 2014, 11:44

Anonymous Перейти к последнему сообщению

В этой теме нет новых непрочитанных сообщений. Скачать торрент Проверен [iPad] Кибер / Blackhat (Майкл Манн / Michael Mann ) [2015, США, Боевик, триллер, драма, криминал, детектив, WEB-DLRip, SD (576p)] DUB

в форуме Фильмы для iPod, iPhone, iPad, Размер: 2.19 ГБ, Здоровье: 100%

Гость

0
56|19

98
0

14 май 2015, 00:26

Гость Перейти к последнему сообщению

В этой теме нет новых непрочитанных сообщений. Скачать торрент Остров проклятых / Shutter Island (Мартин Скорсезе / Martin Scorsese) [2010 г., США, триллер, драма, детектив, BDRip] Dub

в форуме Триллеры, Размер: 1.46 ГБ, Здоровье: 100%

Anonymous

0
56|19

76
0

04 фев 2014, 21:23

Anonymous Перейти к последнему сообщению



Сейчас этот форум просматривают: нет зарегистрированных пользователей и гости: 1


Вы не можете начинать темы
Вы не можете отвечать на сообщения
Вы не можете редактировать свои сообщения
Вы не можете удалять свои сообщения
Вы не можете добавлять вложения

Перейти:  

!ВНИМАНИЕ!
 Ресурс не предоставляет электронные версии произведений, а занимается лишь коллекционированием и каталогизацией ссылок, присылаемых и публикуемых на форуме нашими читателями. Если вы являетесь правообладателем какого-либо представленного материала и не желаете чтобы ссылка на него находилась в нашем каталоге, свяжитесь с нами и мы незамедлительно удалим её. Файлы для обмена на трекере предоставлены пользователями сайта, и администрация не несёт ответственности за их содержание. Просьба не заливать файлы, защищенные авторскими правами, а также файлы нелегального содержания!