На всех торрентах на трекере установлена скидка на скачивание в размере 100 процентов(а).
 Возможность скачивания торрента НЕ зависит от ограничений при низком ратио, низком аплоаде, требуемом ратио или требуемом аплоаде.


Начать новую тему Ответить на тему
Статистика раздачи
Размер: 5.6 ГБ | Добавлен: 31 июл 2014, 15:00 | Скачали: 4626
Сидеров: 72  [0 байт/сек]    Личеров: 5  [0 байт/сек]
Пред. тема | След. тема 

Автор
Сообщение

СообщениеДобавлено: 31 июл 2014, 15:00 

Название: Голые амбиции
Оригинальное название: Naked Ambition
Год выхода: 2014
Жанр: комедия, эротика
Режиссер: Койти Сакамото

В ролях: Чэпмэн То, Джоси Хо, Йоки Маико, Сандра Энг, Луис Ку, Вон Чжин, Шарлин Чой, Дерек Цанг, Като Така, Тацуми Юи, Аои Цукаса, Тайсон Ди, Юми Кана, Анри Окита

О фильме: Вэймэн Чан пишет эротические рассказы для порно-колонки в газете, однако с распространением интернета в массах, печатное порно перестает пользоваться спросом, колонку закрывают, а Чан теряет работу. И тут случайно у него и его друзей возникает идея снять собственное порно и они погружаются в манящий мир порно-индустрии...



Выпущено: Гонконг
Продолжительность: 01:46:30
Озвучивание: Любительское (одноголосое) [den904]


Формат: MKV
Качество: BDRip 720p [WiKi]
Видео: 6056 kb/s, 1280x544
Аудио: Russian: AC3, 192 kb/s (2 ch) / Chinese [Cantonese, Mandarin]: AC3, 640 kb/s (6 ch)





Format : Matroska
Format version : Version 4 / Version 2
File size : 5.60 GiB
Duration : 1h 46mn
Overall bit rate : 7 526 Kbps
Movie name : Jubowo @ WiKi
Encoded date : UTC 2014-07-31 08:42:38
Writing application : mkvmerge v6.1.0 ('Old Devil') built on Mar 4 2013 09:10:42
Writing library : libebml v1.3.0 + libmatroska v1.4.0

Video
ID : 1
Format : AVC
Format/Info : Advanced Video Codec
Format profile : High@L4.1
Format settings, CABAC : Yes
Format settings, ReFrames : 12 frames
Codec ID : V_MPEG4/ISO/AVC
Duration : 1h 46mn
Bit rate : 6 056 Kbps
Width : 1 280 pixels
Height : 544 pixels
Display aspect ratio : 2.35:1
Frame rate : 23.976 fps
Color space : YUV
Chroma subsampling : 4:2:0
Bit depth : 8 bits
Scan type : Progressive
Bits/(Pixel*Frame) : 0.363
Stream size : 4.39 GiB (78%)
Writing library : x264 core 129 r2245+704+36 8e61944 tMod+MixAQ [8-bit@4:2:0 X86_64]
Encoding settings : cabac=1 / ref=12 / deblock=1:-3:-3 / analyse=0x3:0x133 / me=umh / subme=11 / psy=1 / fade_compensate=0.00 / psy_rd=1.05:0.10 / mixed_ref=1 / me_range=32 / chroma_me=1 / trellis=2 / 8x8dct=1 / cqm=0 / deadzone=21,11 / fast_pskip=0 / chroma_qp_offset=-3 / threads=18 / lookahead_threads=3 / sliced_threads=0 / nr=0 / decimate=0 / interlaced=0 / bluray_compat=0 / constrained_intra=0 / fgo=0 / bframes=8 / b_pyramid=2 / b_adapt=2 / b_bias=0 / direct=3 / weightb=1 / open_gop=0 / weightp=2 / keyint=250 / keyint_min=23 / scenecut=40 / intra_refresh=0 / rc_lookahead=80 / rc=2pass / mbtree=1 / bitrate=6056 / ratetol=1.0 / qcomp=0.70 / qpmin=0 / qpmax=69 / qpstep=4 / cplxblur=20.0 / qblur=0.5 / ip_ratio=1.40 / aq=3 / aq-strength=0.80 / aq-sensitivity=10.00 / aq-ifactor=1.00 / aq-pfactor=1.00 / aq-bfactor=1.00 / aq2=0
Language : Chinese
Default : Yes
Forced : No
Matrix coefficients : BT.709-5, BT.1361, IEC 61966-2-4 709, SMPTE RP177

Audio #1
ID : 2
Format : AC-3
Format/Info : Audio Coding 3
Mode extension : CM (complete main)
Format settings, Endianness : Big
Codec ID : A_AC3
Duration : 1h 46mn
Bit rate mode : Constant
Bit rate : 192 Kbps
Channel(s) : 2 channels
Channel positions : Front: L R
Sampling rate : 48.0 KHz
Bit depth : 16 bits
Compression mode : Lossy
Stream size : 146 MiB (3%)
Language : Russian
Default : Yes
Forced : No

Audio #2
ID : 3
Format : AC-3
Format/Info : Audio Coding 3
Mode extension : CM (complete main)
Format settings, Endianness : Big
Codec ID : A_AC3
Duration : 1h 46mn
Bit rate mode : Constant
Bit rate : 640 Kbps
Channel(s) : 6 channels
Channel positions : Front: L C R, Side: L R, LFE
Sampling rate : 48.0 KHz
Bit depth : 16 bits
Compression mode : Lossy
Stream size : 488 MiB (9%)
Title : Cantonese
Language : Chinese
Default : No
Forced : No

Audio #3
ID : 4
Format : AC-3
Format/Info : Audio Coding 3
Mode extension : CM (complete main)
Format settings, Endianness : Big
Codec ID : A_AC3
Duration : 1h 46mn
Bit rate mode : Constant
Bit rate : 640 Kbps
Channel(s) : 6 channels
Channel positions : Front: L C R, Side: L R, LFE
Sampling rate : 48.0 KHz
Bit depth : 16 bits
Compression mode : Lossy
Stream size : 488 MiB (9%)
Title : Mandarin
Language : Chinese
Default : No
Forced : No

Menu
00:00:00.000 : en:00:00:00.000
00:06:52.161 : en:00:06:52.161
00:10:21.704 : en:00:10:21.704
00:15:03.027 : en:00:15:03.027
00:20:02.159 : en:00:20:02.159
00:25:50.382 : en:00:25:50.382
00:30:13.353 : en:00:30:13.353
00:35:34.465 : en:00:35:34.465
00:40:25.589 : en:00:40:25.589
00:45:59.715 : en:00:45:59.715
00:51:14.029 : en:00:51:14.029
00:56:30.720 : en:00:56:30.720
01:01:04.535 : en:01:01:04.535
01:04:26.112 : en:01:04:26.112
01:10:14.251 : en:01:10:14.251
01:14:50.319 : en:01:14:50.319
01:20:07.010 : en:01:20:07.010
01:27:22.528 : en:01:27:22.528
01:33:05.788 : en:01:33:05.788
01:43:58.774 : en:01:43:58.774
загрузка...
Правила, инструкции, FAQ!!!
Торрент  Добавлен [31 июл 2014, 15:00] Скачать торрент
Скачать торрент
[ Размер 14.58 КБ / Просмотров 11 ]

Статус
Проверен 
 
Размер  5.6 ГБ
Приватный: Нет (DHT включён)
.torrent скачан  4626
Как залить торрент? | Как скачать Torrent? | Как смотреть и слушать онлайн?  


     Отправить личное сообщение
   
Страница 1 из 1
Показать сообщения за:  Поле сортировки  
Начать новую тему Ответить на тему

   Похожие торренты   Автор   Ответы   Просмотры   Последнее сообщение 
В этой теме нет новых непрочитанных сообщений. Скачать торрент Проверен Голые амбиции / Naked Ambition (2014) HDRip | L1

в форуме Комедии, Размер: 1.37 ГБ, Здоровье: 0%

Anonymous

0
0|0

40
1

31 июл 2014, 15:02

Anonymous Перейти к последнему сообщению

В этой теме нет новых непрочитанных сообщений. Скачать торрент Проверен Голые перцы / Search Party (2014) BDRip 1080p | iTunes

в форуме 720p | 1080p, Размер: 7.9 ГБ, Здоровье: 100%

Гость

0
401|204

152
906

05 июн 2015, 19:02

Гость Перейти к последнему сообщению

В этой теме нет новых непрочитанных сообщений. Скачать торрент Проверен (Melodic Rock | AOR) Ambition - Ambition - 2006, MP3, 320 kbps

в форуме AOR (Melodic Hard Rock, Arena rock), Размер: 141.55 МБ, Здоровье: 0%

Anonymous

0
0|0

0
0

08 окт 2016, 01:04

Anonymous Перейти к последнему сообщению

В этой теме нет новых непрочитанных сообщений. Скачать торрент Проверен Голые перцы / Search Party (2014) HDRiр | iTunes

в форуме Комедии, Размер: 1.46 ГБ, Здоровье: 100%

Anonymous

0
270|113

258
373

05 июн 2015, 19:06

Anonymous Перейти к последнему сообщению

В этой теме нет новых непрочитанных сообщений. Скачать торрент Проверен (Progressive Rock) Naked Sun - Naked Sun - 1991, APE (image+.cue), lossless

в форуме Progressive & Art-Rock, Размер: 364.14 МБ, Здоровье: 0%

Anonymous

0
0|0

2
0

30 авг 2016, 21:06

Anonymous Перейти к последнему сообщению



Сейчас этот форум просматривают: нет зарегистрированных пользователей и гости: 4


Вы не можете начинать темы
Вы не можете отвечать на сообщения
Вы не можете редактировать свои сообщения
Вы не можете удалять свои сообщения
Вы не можете добавлять вложения

Перейти:  

!ВНИМАНИЕ!
 Ресурс не предоставляет электронные версии произведений, а занимается лишь коллекционированием и каталогизацией ссылок, присылаемых и публикуемых на форуме нашими читателями. Если вы являетесь правообладателем какого-либо представленного материала и не желаете чтобы ссылка на него находилась в нашем каталоге, свяжитесь с нами и мы незамедлительно удалим её. Файлы для обмена на трекере предоставлены пользователями сайта, и администрация не несёт ответственности за их содержание. Просьба не заливать файлы, защищенные авторскими правами, а также файлы нелегального содержания!