На всех торрентах на трекере установлена скидка на скачивание в размере 100 процентов(а).
 Возможность скачивания торрента НЕ зависит от ограничений при низком ратио, низком аплоаде, требуемом ратио или требуемом аплоаде.


Начать новую тему Ответить на тему
Статистика раздачи
Размер: 13.52 ГБ | Добавлен: 23 фев 2013, 20:20 | Скачали: 0
Сидеров: 0  [0 байт/сек]    Личеров: 0  [0 байт/сек]
Пред. тема | След. тема 

Автор
Сообщение

СообщениеДобавлено: 23 фев 2013, 20:20 

Хранитель времени / Hugo


Страна: США
Жанр: Драма, детектив, приключения, семейный
Год выпуска: 2011
Продолжительность: 02:06:21

Перевод: Профессиональный (полное дублирование)
Формат субтитров: srt
Оригинальная аудиодорожка: Английская

Режиссёр: Мартин Скорсезе / Martin Scorsese

В фильме снимались: Аса Баттерфилд, Бен Кингсли, Саша Барон Коэн, Хлоя Грейс Морец, Рэй Уинстон, Эмили Мортимер, Кристофер Ли, Хелен МакКрори, Майкл Стулбар

Вкратце:
Франция 30-е годы, Хьюго живёт на парижском вокзале.У мальчика - сироты никого нет, кроме дяди- алкоголика. Ему в руки попадает интересный механизм, который создал знаменитый фильммейкер Жорж Мелье.Благодаря этому механизму начинаются удивительные события и они помогают Хьюго узнать много тайн, связанных с его покойным отцом.


Тип релиза: BDRip (HDChina)
Контейнер: MKV
Видео: H264 / 13361 kbps / 1920x1080 / 23.976 fps / 16:9 / High Profile 4.1
Аудио 1: Русский дубляж / Dolby Digital / 5.1 / 448 kbps / 48 kHz
Аудио 2: Английский / DTS / 5.1 / 1536 kbps / 48 kHz
Субтитры 1: Русские (спасибо Админ-у)
Субтитры 2: Английские srt
Чаптеры: есть





Код:
Полное имя                       : Hugo.2011.Blu-ray.1080p.x264-HDChina.Rus.Eng.mkv
Формат                           : Matroska
Версия формата                   : Version 2
Размер файла                     : 13,5 Гбайт
Продолжительность                : 2 ч. 6 м.
Общий поток                      : 15,3 Мбит/сек
Название фильма                  : HANSMER
Дата кодирования                 : UTC 2012-02-22 16:25:04
Программа кодирования            : mkvmerge v5.3.0 ('I could have danced') built on Feb  9 2012 10:38:07
Библиотека кодирования           : libebml v1.2.3 + libmatroska v1.3.0

Видео
Идентификатор                    : 1
Формат                           : AVC
Формат/Информация                : Advanced Video Codec
Профиль формата                  : High@L4.1
Параметр CABAC формата           : Да
Параметр ReFrames формата        : 4 кадра
Идентификатор кодека             : V_MPEG4/ISO/AVC
Продолжительность                : 2 ч. 6 м.
Битрейт                          : 13,4 Мбит/сек
Ширина                           : 1920 пикселей
Высота                           : 1080 пикселей
Соотношение сторон               : 16:9
Частота кадров                   : 23,976 кадра/сек
Цветовое пространство            : YUV
Субдискретизация насыщенности    : 4:2:0
Битовая глубина                  : 8 бит
Тип развёртки                    : Прогрессивная
Бит/(Пиксели*Кадры)              : 0.269
Размер потока                    : 11,5 Гбайт (85%)
Заголовок                        : Hugo.2011.1080p.BluRay.x264.DTS-HDChina
Библиотека кодирования           : x264 core 120 r2164 da19765
Настройки программы              : cabac=1 / ref=4 / deblock=1:-3:-3 / analyse=0x3:0x133 / me=umh / subme=10 / psy=1 / psy_rd=1.00:0.00 / mixed_ref=1 / me_range=48 / chroma_me=1 / trellis=2 / 8x8dct=1 / cqm=0 / deadzone=21,11 / fast_pskip=1 / chroma_qp_offset=-2 / threads=12 / sliced_threads=0 / nr=0 / decimate=0 / interlaced=0 / bluray_compat=0 / constrained_intra=0 / bframes=6 / b_pyramid=2 / b_adapt=2 / b_bias=0 / direct=3 / weightb=1 / open_gop=0 / weightp=2 / keyint=250 / keyint_min=23 / scenecut=40 / intra_refresh=0 / rc_lookahead=60 / rc=2pass / mbtree=1 / bitrate=13361 / ratetol=1.0 / qcomp=0.60 / qpmin=0 / qpmax=69 / qpstep=4 / cplxblur=20.0 / qblur=0.5 / vbv_maxrate=50000 / vbv_bufsize=50000 / nal_hrd=none / ip_ratio=1.50 / aq=1:1.00
Язык                             : English

Аудио #1
Идентификатор                    : 2
Формат                           : AC-3
Формат/Информация                : Audio Coding 3
Расширение режима                : CM (complete main)
Идентификатор кодека             : A_AC3
Продолжительность                : 2 ч. 6 м.
Вид битрейта                     : Постоянный
Битрейт                          : 448 Кбит/сек
Каналы                           : 6 каналов
Расположение каналов             : Front: L C R, Side: L R, LFE
Частота                          : 48,0 КГц
Битовая глубина                  : 16 бит
Метод сжатия                     : С потерями
Размер потока                    : 405 Мбайт (3%)
Язык                             : Russian

Аудио #2
Идентификатор                    : 3
Формат                           : DTS
Формат/Информация                : Digital Theater Systems
Идентификатор кодека             : A_DTS
Продолжительность                : 2 ч. 6 м.
Вид битрейта                     : Постоянный
Битрейт                          : 1510 Кбит/сек
Каналы                           : 6 каналов
Расположение каналов             : Front: L C R, Side: L R, LFE
Частота                          : 48,0 КГц
Битовая глубина                  : 24 бит
Метод сжатия                     : С потерями
Размер потока                    : 1,33 Гбайт (10%)
Язык                             : English

Текст #1
Идентификатор                    : 4
Формат                           : UTF-8
Идентификатор кодека             : S_TEXT/UTF8
Идентификатор кодека/Информация  : UTF-8 Plain Text
Язык                             : Russian

Текст #2
Идентификатор                    : 5
Формат                           : UTF-8
Идентификатор кодека             : S_TEXT/UTF8
Идентификатор кодека/Информация  : UTF-8 Plain Text
Язык                             : English

Меню
00:00:00.000                     : en:Chapter 1
00:09:35.533                     : en:Chapter 2
00:17:20.665                     : en:Chapter 3
00:23:32.911                     : en:Chapter 4
00:30:34.541                     : en:Chapter 5
00:38:26.262                     : en:Chapter 6
00:47:36.270                     : en:Chapter 7
00:55:37.543                     : en:Chapter 8
01:03:43.695                     : en:Chapter 9
01:12:46.862                     : en:Chapter 10
01:19:59.169                     : en:Chapter 11
01:27:10.100                     : en:Chapter 12
01:33:03.495                     : en:Chapter 13
01:42:41.280                     : en:Chapter 14
01:53:47.779                     : en:Chapter 15
01:59:58.441                     : en:Chapter 16


загрузка...
Правила, инструкции, FAQ!!!
Торрент  Добавлен [23 фев 2013, 20:20] Скачать торрент
Скачать торрент
[ Размер 68.12 КБ / Просмотров 5 ]

Статус
Проверен 
 
Размер  13.52 ГБ
Приватный: Нет (DHT включён)
.torrent скачан  0
Как залить торрент? | Как скачать Torrent? | Как смотреть и слушать онлайн?  


     Отправить личное сообщение
   
Страница 1 из 1
Показать сообщения за:  Поле сортировки  
Начать новую тему Ответить на тему

   Похожие торренты   Автор   Ответы   Просмотры   Последнее сообщение 
В этой теме нет новых непрочитанных сообщений. Скачать торрент Проверен Хранитель времени в 3Д / Hugo 3D (Мартин Скорсезе / Martin Scorsese) [2011, драма, детектив, приключения, семейный, BDrip-AVC] Half OverUnder / Вертикальная анаморфная стереопара

в форуме HD-Video в 3D, Размер: 8.99 ГБ, Здоровье: 100%

Anonymous

0
56|19

53
0

10 июл 2014, 08:14

Anonymous Перейти к последнему сообщению

В этой теме нет новых непрочитанных сообщений. Скачать торрент Остров проклятых / Shutter Island (Мартин Скорсезе / Martin Scorsese) [2010 г., США, триллер, драма, детектив, BDRip] Dub

в форуме Триллеры, Размер: 1.46 ГБ, Здоровье: 100%

Anonymous

0
56|19

79
0

04 фев 2014, 21:23

Anonymous Перейти к последнему сообщению

В этой теме нет новых непрочитанных сообщений. Скачать торрент Проверен [iPhone] Остров проклятых / Shutter Island (Мартин Скорсезе / Martin Scorsese) [2010 г., триллер, драма, детектив, BDRip]

в форуме Фильмы для iPod, iPhone, iPad, Размер: 1.12 ГБ, Здоровье: 100%

Гость

0
16|5

67
2

18 май 2015, 10:53

Гость Перейти к последнему сообщению

В этой теме нет новых непрочитанных сообщений. Скачать торрент Проверен [iPad] Остров проклятых / Shutter Island (Мартин Скорсезе / Martin Scorsese ) [2009, США, триллер, драма, детектив, BDRip, SD (576p)] DUB + Original + sub Rus + Eng

в форуме Фильмы для iPod, iPhone, iPad, Размер: 2.44 ГБ, Здоровье: 100%

Гость

0
56|19

51
1

11 май 2015, 01:37

Гость Перейти к последнему сообщению

В этой теме нет новых непрочитанных сообщений. Скачать торрент Отступники / Departed, The (Мартин Скорсезе /Martin Scorsese) [2006 г., Детектив, Драма, Триллер, HDRip-AVC]

в форуме 720p | 1080p, Размер: 1.46 ГБ, Здоровье: 100%

Anonymous

0
14|5

51
0

13 фев 2014, 11:38

Anonymous Перейти к последнему сообщению



Сейчас этот форум просматривают: нет зарегистрированных пользователей и гости: 1


Вы не можете начинать темы
Вы не можете отвечать на сообщения
Вы не можете редактировать свои сообщения
Вы не можете удалять свои сообщения
Вы не можете добавлять вложения

Перейти:  

!ВНИМАНИЕ!
 Ресурс не предоставляет электронные версии произведений, а занимается лишь коллекционированием и каталогизацией ссылок, присылаемых и публикуемых на форуме нашими читателями. Если вы являетесь правообладателем какого-либо представленного материала и не желаете чтобы ссылка на него находилась в нашем каталоге, свяжитесь с нами и мы незамедлительно удалим её. Файлы для обмена на трекере предоставлены пользователями сайта, и администрация не несёт ответственности за их содержание. Просьба не заливать файлы, защищенные авторскими правами, а также файлы нелегального содержания!