На всех торрентах на трекере установлена скидка на скачивание в размере 100 процентов(а).
 Возможность скачивания торрента НЕ зависит от ограничений при низком ратио, низком аплоаде, требуемом ратио или требуемом аплоаде.


Начать новую тему Ответить на тему
Статистика раздачи
Размер: 12.28 ГБ | Добавлен: 22 фев 2013, 14:26 | Скачали: 0
Сидеров: 0  [0 байт/сек]    Личеров: 0  [0 байт/сек]
Пред. тема | След. тема 

Автор
Сообщение

СообщениеДобавлено: 22 фев 2013, 14:26 

9 Рота


Год выпуска: 2005
Страна: Россия, Финляндия, Украина
Жанр: Боевик, драма, военный, история
Продолжительность: 02:19:12
Перевод: Не требуется
Субтитры: русские, английские

Режиссер: Федор Бондарчук

В фильме снимались: Артур Смольянинов, Алексей Чадов, Иван Кокорин, Артем Михалков, Константин Крюков, Михаил Пореченков, Федор Бондарчук, Ирина Рахманова, Алексей Серебряков, Михаил Ефремов, Алексей Кравченко, Андрей Краско, Станислав Говорухин, Александр Баширов, Александр Лыков, Евгений Арутюнян, Сослан Фидаров, Марат Гудиев, Светлана Иванова, Олесь Кацион, Александр Кучеренко, Амаду Мамадаков, Карен Мартиросян, Денис Мошкин, Дмитрий Мухамадеев, Александр Шейн, Михаил Владимиров, Иван Николаев, Михаил Евланов, Дмитрий Шаракоис

Вкратце: 1988 год, семеро новобранцев, призванных в Советскую Армию, проходят подготовку перед отправкой в Афганистан. А там они попадают в одно из самых знаменитых подразделений- 9 роту 345-го парашютно-десантного полка, самую героическую и боеспособную. В ней собрались самые отчаянные парни.
9-ой ротой получено задание: закрепиться на высоте 3234 и удержать её...Они остались один на один с многочисленным врагом. Основано на реальных событиях.




Качество: BDRip
Формат файла: MKV
Видео кодек: x264
Аудио кодек: DTS
Видео: 1920x774, 23.976 fps, ~11 Mbps
Аудио: 6 ch, 48kHz, 1510 Kbps









Complete name : 9 рота.2005.BDrip.1080p.mkv
Format : Matroska
File size : 12.3 GiB
Duration : 2h 19mn
Overall bit rate : 12.6 Mbps
Movie name : 9.Rota.2005
Encoded date : UTC 2008-10-07 17:04:21
Writing application : mkvmerge v2.1.0 ('Another Place To Fall') built on Aug 19 2007 13:40:07
Writing library : libebml v0.7.7 + libmatroska v0.8.1

Video
ID : 1
Format : AVC
Format/Info : Advanced Video Codec
Format profile : High@L4.1
Format settings, CABAC : Yes
Format settings, ReFrames : 5 frames
Muxing mode : Container profile=Unknown@4.1
Codec ID : V_MPEG4/ISO/AVC
Duration : 2h 19mn
Bit rate : 10.9 Mbps
Nominal bit rate : 11.1 Mbps
Width : 1 920 pixels
Height : 774 pixels
Display aspect ratio : 2.481
Frame rate : 23.976 fps
Resolution : 24 bits
Colorimetry : 4:2:0
Scan type : Progressive
Bits/(Pixel*Frame) : 0.305
Stream size : 10.6 GiB (86%)
Title : 9.Rota.2005.1080p.BDRip.x264-HDv.0day.Team-ZACKARY
Writing library : x264 core 65 r998M 6768543
Encoding settings : cabac=1 / ref=5 / deblock=1:-1:-1 / analyse=0x3:0x113 / me=hex / subme=7 / psy_rd=1.0:0.0 / mixed_ref=0 / me_range=16 / chroma_me=1 / trellis=1 / 8x8dct=1 / cqm=0 / deadzone=21,11 / chroma_qp_offset=-2 / threads=3 / nr=0 / decimate=0 / mbaff=0 / bframes=5 / b_pyramid=1 / b_adapt=2 / b_bias=0 / direct=1 / wpredb=1 / keyint=250 / keyint_min=25 / scenecut=40(pre) / rc=2pass / bitrate=11120 / ratetol=1.0 / qcomp=0.60 / qpmin=10 / qpmax=51 / qpstep=4 / cplxblur=20.0 / qblur=0.5 / ip_ratio=1.40 / pb_ratio=1.30 / aq=1:1.00
Language : Russian

Audio
ID : 2
Format : DTS
Format/Info : Digital Theater Systems
Codec ID : A_DTS
Duration : 2h 19mn
Bit rate mode : Constant
Bit rate : 1 510 Kbps
Channel(s) : 6 channels
Channel positions : Front: L C R, Surround: L R, LFE
Sampling rate : 48.0 KHz
Resolution : 16 bits
Stream size : 1.47 GiB (12%)
Title : Оригинал DTS 6ch 1536kbps
Language : Russian

Text #1
ID : 3
Format : UTF-8
Codec ID : S_TEXT/UTF8
Codec ID/Info : UTF-8 Plain Text
Language : Russian

Text #2
ID : 4
Format : UTF-8
Codec ID : S_TEXT/UTF8
Codec ID/Info : UTF-8 Plain Text
Language : English
загрузка...
Правила, инструкции, FAQ!!!
Торрент  Добавлен [22 фев 2013, 14:26] Скачать торрент
Скачать торрент
[ Размер 31.19 КБ / Просмотров 5 ]

Статус
Проверен 
 
Размер  12.28 ГБ
Приватный: Нет (DHT включён)
.torrent скачан  0
Как залить торрент? | Как скачать Torrent? | Как смотреть и слушать онлайн?  


     Отправить личное сообщение
   
Страница 1 из 1
Показать сообщения за:  Поле сортировки  
Начать новую тему Ответить на тему

   Похожие торренты   Автор   Ответы   Просмотры   Последнее сообщение 
В этой теме нет новых непрочитанных сообщений. Скачать торрент Проверен Сталинград (Фёдор Бондарчук) [2013, Россия, военный, драма, боевик, BDRip 720p]

в форуме Наше кино (HD Video), Размер: 4.4 ГБ, Здоровье: 100%

Anonymous

0
34|11

120
1

12 апр 2015, 15:08

Anonymous Перейти к последнему сообщению

В этой теме нет новых непрочитанных сообщений. Скачать торрент Проверен Сталинград (Фёдор Бондарчук) [2013, Россия, военный, драма, боевик, BDRip, 480p]

в форуме Фильмы для iPod, iPhone, iPad, Размер: 1.49 ГБ, Здоровье: 100%

Гость

0
54|18

25
0

14 май 2015, 00:19

Гость Перейти к последнему сообщению

В этой теме нет новых непрочитанных сообщений. Скачать торрент Проверен Сталинград (Фёдор Бондарчук) [2013, Россия, боевик, драма, военный, Blu-ray disc]

в форуме Наше кино (HD Video), Размер: 32.79 ГБ, Здоровье: 100%

Anonymous

0
18|6

20
0

12 апр 2015, 15:05

Anonymous Перейти к последнему сообщению

В этой теме нет новых непрочитанных сообщений. Скачать торрент Проверен Звезда (Николай Лебедев) [2002, Россия, боевик, драма, приключения, военный, история, Blu-ray disc 1080p] Sub eng

в форуме Наше кино (HD Video), Размер: 19.61 ГБ, Здоровье: 100%

Гость

0
11|4

29
0

12 апр 2015, 10:56

Гость Перейти к последнему сообщению

В этой теме нет новых непрочитанных сообщений. Скачать торрент Проверен Звезда (Николай Лебедев) [2002, Россия, боевик, драма, приключения, военный, история., BDRip 720p] Sub eng

в форуме Наше кино (HD Video), Размер: 4.37 ГБ, Здоровье: 91%

Anonymous

0
11|12

27
0

12 апр 2015, 11:06

Anonymous Перейти к последнему сообщению



Сейчас этот форум просматривают: нет зарегистрированных пользователей и гости: 1


Вы не можете начинать темы
Вы не можете отвечать на сообщения
Вы не можете редактировать свои сообщения
Вы не можете удалять свои сообщения
Вы не можете добавлять вложения

Перейти:  

!ВНИМАНИЕ!
 Ресурс не предоставляет электронные версии произведений, а занимается лишь коллекционированием и каталогизацией ссылок, присылаемых и публикуемых на форуме нашими читателями. Если вы являетесь правообладателем какого-либо представленного материала и не желаете чтобы ссылка на него находилась в нашем каталоге, свяжитесь с нами и мы незамедлительно удалим её. Файлы для обмена на трекере предоставлены пользователями сайта, и администрация не несёт ответственности за их содержание. Просьба не заливать файлы, защищенные авторскими правами, а также файлы нелегального содержания!