На всех торрентах на трекере установлена скидка на скачивание в размере 100 процентов(а).
 Возможность скачивания торрента НЕ зависит от ограничений при низком ратио, низком аплоаде, требуемом ратио или требуемом аплоаде.


Начать новую тему Ответить на тему
Статистика раздачи
Размер: 5.77 ГБ | Добавлен: 26 июл 2014, 12:58 | Скачали: 0
Сидеров: 99  [0 байт/сек]    Личеров: 3  [0 байт/сек]
Пред. тема | След. тема 

Автор
Сообщение

СообщениеДобавлено: 26 июл 2014, 12:58 

Куда приводят мечты / What Dreams May Come (1998) BDRip [1080p]

«After life there is more. The end is just the beginning.»

Год выпуска: 1998
Жанр: Драма, Фэнтези, Мелодрама

Описание фильма:
После гибели Криса Нилсена в автокатастрофе он, обретя бессмертие, пытается остаться рядом со своей прекрасной, но смертной женой Энни. С помощью дружественного духа, приставленного к нему в качестве проводника, он начинает привыкать к своему новому существованию в окружении, которое иначе как райским не назовешь. Но когда его обезумевшая от горя жена кончает жизнь самоубийством, ее проклинают и навечно изгоняют в ад. Крис изо всех сил пытается отыскать любимую, чтобы всегда быть с ней, но еще никому и никогда не удавалось спасти грешную душу от ужасного, но заслуженного возмездия. Благодаря помощи своих небесных друзей Крис отправляется в самое опасное и мучительное путешествие в своей жизни, точнее, в жизни после смерти.

Режиссер: Винсент Уорд
Актеры: Робин Уильямс, Кьюба Гудинг мл., Аннабелла Шиорра, Макс Фон Сюдов, Джесика Брукс Грант, Джош Пэддок, Розалинд Чао, Люсинда Дженни, Мэгги МакКарти, Уильма Бонет

Продолжительность: 01:53:43
Качество видео: BDRip-AVC
Перевод: Дублированный
Язык субтитров: Русские, английские
Вид субтитров: Вшитые (отключаемые)



Дата мировой премьеры: 28 сентября 1998
Дата выхода DVD релиза: 10 марта 2011, «ВС трейд»

Видеокодек: MPEG-4 AVC
Битрейт видео: ~6 169 Kbps
Размер кадра: 1916 x 816
Аудио 1: Dolby AC3 48000Hz 6ch 448 Kbps [Русский]
Аудио 2: Dolby AC3 48000Hz 6ch 640 Kbps [Английский]
Format : Matroska
Format version : Version 4 / Version 2
File size : 5.77 GiB
Duration : 1h 53mn
Overall bit rate : 7 259 Kbps
Movie name : What Dreams May Come (1998)
Encoded date : UTC 2014-07-04 23:09:17
Writing application : mkvmerge v7.0.0 ('Where We Going') 64bit built on Jun 9 2014 15:16:27
Writing library : libebml v1.3.0 + libmatroska v1.4.1

Video
ID : 1
Format : AVC
Format/Info : Advanced Video Codec
Format profile :
Format settings, CABAC : Yes
Format settings, ReFrames : 5 frames
Codec ID : V_MPEG4/ISO/AVC
Duration : 1h 53mn
Bit rate : 6 169 Kbps
Width : 1 916 pixels
Height : 816 pixels
Display aspect ratio : 2.35:1
Frame rate mode : Constant
Frame rate : 23.976 fps
Color space : YUV
Chroma subsampling : 4:2:0
Bit depth : 8 bits
Scan type : Progressive
Bits/(Pixel*Frame) : 0.165
Stream size : 4.79 GiB (83%)
Writing library : x264 core 142 r2431 ac76440
Encoding settings : cabac=1 / ref=5 / deblock=1:0:0 / analyse=0x3:0x113 / me=umh / subme=9 / psy=1 / psy_rd=1.00:0.00 / mixed_ref=1 / me_range=24 / chroma_me=1 / trellis=2 / 8x8dct=1 / cqm=0 / deadzone=21,11 / fast_pskip=1 / chroma_qp_offset=-2 / threads=6 / lookahead_threads=1 / sliced_threads=0 / nr=0 / decimate=1 / interlaced=0 / bluray_compat=0 / constrained_intra=0 / bframes=10 / b_pyramid=2 / b_adapt=2 / b_bias=0 / direct=3 / weightb=1 / open_gop=0 / weightp=2 / keyint=240 / keyint_min=24 / scenecut=40 / intra_refresh=0 / rc=2pass / mbtree=0 / bitrate=6169 / ratetol=1.0 / qcomp=0.60 / qpmin=0 / qpmax=69 / qpstep=4 / cplxblur=20.0 / qblur=0.5 / ip_ratio=1.40 / pb_ratio=1.30 / aq=1:1.00
Language : English
Default : Yes
Forced : No

Audio #1
ID : 2
Format : AC-3
Format/Info : Audio Coding 3
Mode extension : CM (complete main)
Format settings, Endianness : Big
Codec ID : A_AC3
Duration : 1h 53mn
Bit rate mode : Constant
Bit rate : 448 Kbps
Channel(s) : 6 channels
Channel positions : Front: L C R, Side: L R, LFE
Sampling rate : 48.0 KHz
Bit depth : 16 bits
Compression mode : Lossy
Stream size : 364 MiB (6%)
Title : Dub
Language : Russian
Default : Yes
Forced : No

Audio #2
ID : 3
Format : AC-3
Format/Info : Audio Coding 3
Mode extension : CM (complete main)
Format settings, Endianness : Big
Codec ID : A_AC3
Duration : 1h 53mn
Bit rate mode : Constant
Bit rate : 640 Kbps
Channel(s) : 6 channels
Channel positions : Front: L C R, Side: L R, LFE
Sampling rate : 48.0 KHz
Bit depth : 16 bits
Compression mode : Lossy
Stream size : 521 MiB (9%)
Title : Original
Language : English
Default : No
Forced : No

Text #1
ID : 4
Format : UTF-8
Codec ID : S_TEXT/UTF8
Codec ID/Info : UTF-8 Plain Text
Title : SDH
Language : English
Default : Yes
Forced : No

Text #2
ID : 5
Format : UTF-8
Codec ID : S_TEXT/UTF8
Codec ID/Info : UTF-8 Plain Text
Title : Full
Language : Russian
Default : No
Forced : No

Menu
00:00:00.000 : en:Love at First Sight
00:04:59.632 : en:Shattered Dreams
00:07:43.921 : en:Working Together
00:12:49.101 : en:Angry with Death
00:20:04.870 : en:I Still Exist
00:24:35.432 : en:Painting Your Own Surroundings
00:34:14.844 : en:Soul Mates
00:42:08.192 : en:Finding an Old Friend
00:51:35.717 : en:Annie's Conclusion
00:57:18.435 : en:The Tracker
01:00:12.942 : en:The Road to Hell
01:04:32.743 : en:The Truth About Albert
01:13:40.541 : en:Angel Falls
01:20:04.257 : en:Who We Really Are to Each Other
01:23:17.367 : en:Annie's Nightmare
01:27:38.002 : en:Double D
01:35:24.009 : en:Sometimes When You Lose, You Win
01:43:37.669 : en:A Second Chance
01:46:01.354 : en:Closing Credits
x264 [info]: frame I:962 Avg QP:14.76 size:174098
x264 [info]: frame P:37234 Avg QP:16.99 size: 62041
x264 [info]: frame B:125411 Avg QP:18.62 size: 22200
Скриншоты:



загрузка...
Правила, инструкции, FAQ!!!
Торрент  Добавлен [26 июл 2014, 12:58] Скачать торрент
Скачать торрент
[ Размер 15.28 КБ / Просмотров 6 ]

Статус
Проверен 
 
Размер  5.77 ГБ
Приватный: Нет (DHT включён)
.torrent скачан  0
Как залить торрент? | Как скачать Torrent? | Как смотреть и слушать онлайн?  


     Отправить личное сообщение
   
Страница 1 из 1
Показать сообщения за:  Поле сортировки  
Начать новую тему Ответить на тему

   Похожие торренты   Автор   Ответы   Просмотры   Последнее сообщение 
В этой теме нет новых непрочитанных сообщений. Скачать торрент Проверен Матесон Ричард - Куда приводят мечты [Сергей Кирсанов, 2012 г., 96bps, MP3]

в форуме Зарубежная фантастика, фэнтези, мистика, ужасы, Размер: 330.28 МБ, Здоровье: 0%

Anonymous

0
0|0

0
0

11 сен 2016, 11:27

Anonymous Перейти к последнему сообщению

В этой теме нет новых непрочитанных сообщений. Скачать торрент Проверен Матесон Ричард - Куда приводят мечты [Кирсанов Сергей, 2012, 96 kbps, MP3]

в форуме Зарубежная фантастика, фэнтези, мистика, ужасы, Размер: 329.74 МБ, Здоровье: 0%

Anonymous

0
0|0

0
0

11 сен 2016, 11:30

Anonymous Перейти к последнему сообщению

В этой теме нет новых непрочитанных сообщений. Скачать торрент Проверен Каникулы мечты / What We Did on Our Holiday (2014) BDRip 1080p | Лицензия

в форуме 720p | 1080p, Размер: 8.01 ГБ, Здоровье: 100%

Гость

0
122|69

162
106

19 авг 2015, 23:39

Гость Перейти к последнему сообщению

В этой теме нет новых непрочитанных сообщений. Скачать торрент Его игра / He Got Game (1998) BDRip 1080p | P2, A

в форуме 720p | 1080p, Размер: 7.95 ГБ, Здоровье: 100%

Anonymous

0
3|0

84
0

14 янв 2014, 13:04

Anonymous Перейти к последнему сообщению

В этой теме нет новых непрочитанных сообщений. Скачать торрент Вам письмо / You've Got Mail (1998) BDRip 1080p | D, A

в форуме 720p | 1080p, Размер: 14.47 ГБ, Здоровье: 100%

Anonymous

0
1|0

25
0

31 дек 2013, 10:26

Anonymous Перейти к последнему сообщению



Сейчас этот форум просматривают: нет зарегистрированных пользователей и гости: 3


Вы не можете начинать темы
Вы не можете отвечать на сообщения
Вы не можете редактировать свои сообщения
Вы не можете удалять свои сообщения
Вы не можете добавлять вложения

Перейти:  

!ВНИМАНИЕ!
 Ресурс не предоставляет электронные версии произведений, а занимается лишь коллекционированием и каталогизацией ссылок, присылаемых и публикуемых на форуме нашими читателями. Если вы являетесь правообладателем какого-либо представленного материала и не желаете чтобы ссылка на него находилась в нашем каталоге, свяжитесь с нами и мы незамедлительно удалим её. Файлы для обмена на трекере предоставлены пользователями сайта, и администрация не несёт ответственности за их содержание. Просьба не заливать файлы, защищенные авторскими правами, а также файлы нелегального содержания!