На всех торрентах на трекере установлена скидка на скачивание в размере 100 процентов(а).
 Возможность скачивания торрента НЕ зависит от ограничений при низком ратио, низком аплоаде, требуемом ратио или требуемом аплоаде.


Начать новую тему Ответить на тему
Статистика раздачи
Размер: 4.72 ГБ | Добавлен: 17 фев 2013, 13:46 | Скачали: 0
Сидеров: 0  [0 байт/сек]    Личеров: 0  [0 байт/сек]
Пред. тема | След. тема 

Автор
Сообщение

СообщениеДобавлено: 17 фев 2013, 13:46 

Астерикс и Обеликс в Британии




Название: Астерикс и Обеликс в Британии
Год выпуска: 2012
Жанр: комедия, приключения, семейный
Режиссер: Лоран Тирар

В фильме снимались: Жерар Депардье, Эдуард Баэр, Гийом Гальенн, Венсан Лакост, Валери Лемерсье, Фабрис Лукини, Катрин Денёв, Шарлотта Лебон, Боли Ланнерс, Дэни Бун

Вкратце: Пятидесятый год до нашей эры. Юлий Цезарь рвется к новым завоеваниям. Командуя своими прославленными легионами он собирается захватить остров, который расположен на самом краю света — таинственную страну, называемоей Британией. Легионы Цезаря одерживает быструю и безоговорочную победу. Ну… почти безоговорочную: одна небольшая деревушка продолжает отчаянно обороняться, однако силы не равны, и королева бриттов Корделия направляет офицера Красовакса за помощью в Галлию. Когда к галлам приезжает Красовакс, те снабжают его бочонком своего знаменитого волшебного зелья, а Астерикс и Обеликс отправляются вместе с ним в Британию. Гадорикса они тоже берут с собой, так как путешествие — хороший способ пополнить образование молодого человека. Но, к сожалению, все идет не так, как было задумано…



Выпущено: Венгрия, Испания, Италия, Франция / Bruxelles Capitale, Cinetotal, Fidйlitй Films, France Tйlйvision, Les Editions Albert Renй, Lucky Red, Morena Films S.L.
Продолжительность: 01:50:15
Озвучивание: Дублированное Лицензия


Формат: MKV
Качество: BDRip 720p
Видео: 4165 Kb/s, 1280x536
Аудио: Russian: AC3, 448 Kb/s (6 ch), French: DTS, 1510 Kb/s (6 ch)


General
Unique ID : 199123931459050833011899698591320511722 (0x95CDDFCD26B8C40C83893B6DDE8014EA)
Complete name : E:Asteriks.i.Obeliks.v.Britanii.2012.D.BDRip.720p.mkv
Format : Matroska
Format version : Version 1
File size : 4.72 GiB
Duration : 1h 50mn
Overall bit rate : 6 125 Kbps
Encoded date : UTC 2013-02-17 06:38:44
Writing application : mkvmerge v2.4.0 ('Fumbling Towards Ecstasy') built on Oct 11 2008 20:13:15
Writing library : libebml v0.7.7 + libmatroska v0.8.1

Video
ID : 1
Format : AVC
Format/Info : Advanced Video Codec
Format profile : High@L4.1
Format settings, CABAC : Yes
Format settings, ReFrames : 5 frames
Codec ID : V_MPEG4/ISO/AVC
Duration : 1h 50mn
Bit rate : 4 165 Kbps
Width : 1 280 pixels
Height : 536 pixels
Display aspect ratio : 2.40:1
Frame rate : 23.976 fps
Color space : YUV
Chroma subsampling : 4:2:0
Bit depth : 8 bits
Scan type : Progressive
Bits/(Pixel*Frame) : 0.253
Stream size : 3.12 GiB (66%)
Writing library : x264 core 129 r2230 1cffe9f
Encoding settings : cabac=1 / ref=5 / deblock=1:0:0 / analyse=0x3:0x113 / me=umh / subme=8 / psy=1 / psy_rd=1.00:0.00 / mixed_ref=1 / me_range=16 / chroma_me=1 / trellis=1 / 8x8dct=1 / cqm=0 / deadzone=21,11 / fast_pskip=1 / chroma_qp_offset=-2 / threads=12 / lookahead_threads=2 / sliced_threads=0 / nr=0 / decimate=1 / interlaced=0 / bluray_compat=0 / constrained_intra=0 / bframes=3 / b_pyramid=2 / b_adapt=2 / b_bias=0 / direct=3 / weightb=1 / open_gop=0 / weightp=2 / keyint=240 / keyint_min=24 / scenecut=40 / intra_refresh=0 / rc_lookahead=50 / rc=2pass / mbtree=1 / bitrate=4165 / ratetol=1.0 / qcomp=0.60 / qpmin=0 / qpmax=69 / qpstep=4 / cplxblur=20.0 / qblur=0.5 / ip_ratio=1.40 / aq=1:1.00
Language : English

Audio #1
ID : 2
Format : AC-3
Format/Info : Audio Coding 3
Mode extension : CM (complete main)
Codec ID : A_AC3
Duration : 1h 50mn
Bit rate mode : Constant
Bit rate : 448 Kbps
Channel(s) : 6 channels
Channel positions : Front: L C R, Side: L R, LFE
Sampling rate : 48.0 KHz
Bit depth : 16 bits
Compression mode : Lossy
Stream size : 353 MiB (7%)
Language : Russian

Audio #2
ID : 3
Format : DTS
Format/Info : Digital Theater Systems
Codec ID : A_DTS
Duration : 1h 50mn
Bit rate mode : Constant
Bit rate : 1 510 Kbps
Channel(s) : 6 channels
Channel positions : Front: L C R, Side: L R, LFE
Sampling rate : 48.0 KHz
Bit depth : 24 bits
Compression mode : Lossy
Delay relative to video : 11ms
Stream size : 1.16 GiB (25%)
Title : French DTS 1509kbps
Language : French

Menu
00:00:00.000 : en:00:00:00.000
00:06:09.286 : en:00:06:09.286
00:15:17.708 : en:00:15:17.708
00:20:36.068 : en:00:20:36.068
00:30:28.243 : en:00:30:28.243
00:36:35.068 : en:00:36:35.068
00:44:20.825 : en:00:44:20.825
00:49:12.408 : en:00:49:12.408
00:54:29.433 : en:00:54:29.433
01:02:22.447 : en:01:02:22.447
01:09:49.143 : en:01:09:49.143
01:15:12.633 : en:01:15:12.633
01:19:55.833 : en:01:19:55.833
01:26:46.410 : en:01:26:46.410
01:37:37.351 : en:01:37:37.351
01:43:43.968 : en:01:43:43.968


загрузка...
Правила, инструкции, FAQ!!!
Торрент  Добавлен [17 фев 2013, 13:46] Скачать торрент
Скачать торрент
[ Размер 12.33 КБ / Просмотров 13 ]

Статус
Проверен 
 
Размер  4.72 ГБ
Приватный: Нет (DHT включён)
.torrent скачан  0
Как залить торрент? | Как скачать Torrent? | Как смотреть и слушать онлайн?  


     Отправить личное сообщение
   
Страница 1 из 1
Показать сообщения за:  Поле сортировки  
Начать новую тему Ответить на тему

   Похожие торренты   Автор   Ответы   Просмотры   Последнее сообщение 
В этой теме нет новых непрочитанных сообщений. Скачать торрент Проверен Астерикс и Обеликс в Британии в 3Д / Asterix et Obelix: Au service de Sa Majeste 3D (Лоран Тирар / Laurent Tirard) [2012, комедия, приключения, семейный, BDrip-avc] Half OverUnder / Вертикальная анаморфная стереопара

в форуме 3D Мультфильмы, Размер: 11 ГБ, Здоровье: 0%

Anonymous

0
0|0

9
0

07 сен 2016, 17:58

Anonymous Перейти к последнему сообщению

В этой теме нет новых непрочитанных сообщений. Скачать торрент Астерикс и Обеликс: Миссия Клеопатра / Asterix & Obelix: Mission Cleopatra / Astérix & Obélix: Mission Cléopâtre (Ален Шаба / Alain Chabat) [2002, комедия, BDRip-AVC] Dub

в форуме Комедии, Размер: 1.46 ГБ, Здоровье: ???%

Anonymous

0
0|1

105
0

22 апр 2014, 11:41

Anonymous Перейти к последнему сообщению

В этой теме нет новых непрочитанных сообщений. Скачать торрент Астерикс и Обеликс: Миссия Клеопатра / Asterix & Obelix: Mission Cleopatra / Astérix & Obélix: Mission Cléopâtre (Ален Шаба / Alain Chabat) [2002, Франция, Германия, Комедия, BDRip] Dub

в форуме Комедии, Размер: 1.46 ГБ, Здоровье: 100%

Anonymous

0
34|11

68
0

26 апр 2014, 20:55

Anonymous Перейти к последнему сообщению

В этой теме нет новых непрочитанных сообщений. Скачать торрент Астерикс и Обеликс против Цезаря / Asterix et Obelix contre Cesar (Клод Зиди / Claude Zidi) [1999 г., Комедия, Приключения, BDRip]

в форуме Комедии, Размер: 1.46 ГБ, Здоровье: 0%

Anonymous

0
0|0

57
0

01 фев 2014, 19:08

Anonymous Перейти к последнему сообщению

В этой теме нет новых непрочитанных сообщений. Скачать торрент Проверен [iPad] Астерикс и Обеликс: Миссия Клеопатра / Asterix & Obelix: Mission Cleopatre (Ален Шаба / Alain Chabat) [2001, фэнтези, комедия, приключения, BDRip, 1024х]

в форуме Фильмы для iPod, iPhone, iPad, Размер: 2.91 ГБ, Здоровье: 100%

Гость

0
8|2

37
0

18 май 2015, 10:33

Гость Перейти к последнему сообщению



Сейчас этот форум просматривают: нет зарегистрированных пользователей и гости: 3


Вы не можете начинать темы
Вы не можете отвечать на сообщения
Вы не можете редактировать свои сообщения
Вы не можете удалять свои сообщения
Вы не можете добавлять вложения

Перейти:  

!ВНИМАНИЕ!
 Ресурс не предоставляет электронные версии произведений, а занимается лишь коллекционированием и каталогизацией ссылок, присылаемых и публикуемых на форуме нашими читателями. Если вы являетесь правообладателем какого-либо представленного материала и не желаете чтобы ссылка на него находилась в нашем каталоге, свяжитесь с нами и мы незамедлительно удалим её. Файлы для обмена на трекере предоставлены пользователями сайта, и администрация не несёт ответственности за их содержание. Просьба не заливать файлы, защищенные авторскими правами, а также файлы нелегального содержания!