На всех торрентах на трекере установлена скидка на скачивание в размере 100 процентов(а).
 Возможность скачивания торрента НЕ зависит от ограничений при низком ратио, низком аплоаде, требуемом ратио или требуемом аплоаде.


Начать новую тему Ответить на тему
Статистика раздачи
Размер: 2.19 ГБ | Добавлен: 08 фев 2013, 21:04 | Скачали: 0
Сидеров: 0  [0 байт/сек]    Личеров: 0  [0 байт/сек]
Пред. тема | След. тема 

Автор
Сообщение

СообщениеДобавлено: 08 фев 2013, 21:04 

Затерянные в космосе / Lost in Space


О фильме
Действие происходит в 2058 году, когда жить на Земле людям осталось не более двадцати лет — истощилось все. Выдающийся ученый Джон Робинсон и его семья отправляются на суперсовременном звездолете на далекую планету Альфа-прим, пригодную для обитания, чтобы построить там гиперворота, через которые будет осуществлена эвакуация человечества.
Экстремисты подсылают на борт коварного доктора Смита, чтобы тот уничтожил семью Робинсонов и сам корабль. Случайно оставшись на корабле, чтобы не погибнуть, Смит будит Робинсонов и капитана Уэста, лихого боевого пилота.
Чтобы избежать столкновения с Солнцем, капитан включает гипердвигатель, и звездолет оказывается затерянным в неизвестной доселе части Космоса.


Название: Затерянные в космосе
Год выхода: 1998
Жанр: фантастика, боевик, триллер, приключения
Режиссер: Стивен Хопкинс / Stephen Hopkins

В фильме снимались: Уильям Хёрт, Мими Роджерс, Лэйси Чэберт, Хэзер Грэм, Джек Джонсон, Гари Олдман, Мэтт ЛеБлан, Джаред Харрис, Марк Годдар, Ленни Джеймс



Выпущено: США
Продолжительность: 02:10:13
Перевод: Дублированный
Субтитры: Русские | Полные



Формат: mkv
Качество: BDRip 720p (исходник BDRemux)
Видео: 1280x534, 2211 Кбит/сек, 23.976 кадр/сек, AVC, x264, High@L4.1, 2.40:1, 0.135 Бит/[Пиксели*Кадры], 2pass
Аудио: AC-3, 192 Кбит/сек, 2 канала(ов), 48,0 КГц
Чаптеры: Есть

General
Unique ID : 216199959338560852469134830360968164304 (0xA2A698FA1EFA71249D90E4309125F3D0)
Complete name : N:NoLimits-TeamLost in Space.BDRip.720p.[NoLimits-Team].mkv
Format : Matroska
Format version : Version 2
File size : 2.19 GiB
Duration : 2h 10mn
Overall bit rate : 2 404 Kbps
Movie name : Затерянные в космосе .BDRip.720p.[NoLimits-Team]
Encoded date : UTC 2012-11-28 06:41:34
Writing application : mkvmerge v5.8.0 ('No Sleep / Pillow') built on Sep 2 2012 15:37:04
Writing library : libebml v1.2.3 + libmatroska v1.3.0

Video
ID : 1
Format : AVC
Format/Info : Advanced Video Codec
Format profile : High@L4.1
Format settings, CABAC : Yes
Format settings, ReFrames : 12 frames
Codec ID : V_MPEG4/ISO/AVC
Duration : 2h 10mn
Bit rate : 2 211 Kbps
Width : 1 280 pixels
Height : 534 pixels
Display aspect ratio : 2.40:1
Frame rate mode : Constant
Frame rate : 23.976 fps
Color space : YUV
Chroma subsampling : 4:2:0
Bit depth : 8 bits
Scan type : Progressive
Bits/(Pixel*Frame) : 0.135
Stream size : 1.97 GiB (90%)
Title : Затерянные в космосе .BDRip.720p.[NoLimits-Team]
Writing library : x264 core 125 r2200 999b753
Encoding settings : cabac=1 / ref=12 / deblock=1:0:0 / analyse=0x3:0x133 / me=umh / subme=11 / psy=1 / psy_rd=1.00:0.00 / mixed_ref=1 / me_range=32 / chroma_me=1 / trellis=2 / 8x8dct=1 / cqm=0 / deadzone=21,11 / fast_pskip=0 / chroma_qp_offset=-2 / threads=9 / lookahead_threads=1 / sliced_threads=0 / nr=0 / decimate=1 / interlaced=0 / bluray_compat=0 / constrained_intra=0 / bframes=16 / b_pyramid=2 / b_adapt=2 / b_bias=0 / direct=3 / weightb=1 / open_gop=0 / weightp=2 / keyint=240 / keyint_min=24 / scenecut=40 / intra_refresh=0 / rc_lookahead=60 / rc=2pass / mbtree=1 / bitrate=2211 / ratetol=1.0 / qcomp=0.60 / qpmin=0 / qpmax=69 / qpstep=4 / cplxblur=20.0 / qblur=0.5 / ip_ratio=1.40 / aq=1:1.00
Language : English
Default : Yes
Forced : No

Audio
ID : 2
Format : AC-3
Format/Info : Audio Coding 3
Mode extension : CM (complete main)
Format settings, Endianness : Big
Codec ID : A_AC3
Duration : 2h 10mn
Bit rate mode : Constant
Bit rate : 192 Kbps
Channel(s) : 2 channels
Channel positions : Front: L R
Sampling rate : 48.0 KHz
Bit depth : 16 bits
Compression mode : Lossy
Stream size : 179 MiB (8%)
Title : Дублированный
Default : Yes
Forced : No

Text
ID : 3
Format : UTF-8
Codec ID : S_TEXT/UTF8
Codec ID/Info : UTF-8 Plain Text
Title : Русские (полные)
Language : Russian
Default : No
Forced : No

Menu
00:05:00.000 : :Chapter 01
00:15:00.000 : :Chapter 02
00:25:00.000 : :Chapter 03
00:35:00.000 : :Chapter 04
00:45:00.000 : :Chapter 05
00:55:00.000 : :Chapter 06
01:05:00.000 : :Chapter 07
01:15:00.000 : :Chapter 08
01:25:00.000 : :Chapter 09
01:35:00.000 : :Chapter 10
01:45:00.000 : :Chapter 11
01:55:00.000 : :Chapter 12
02:05:00.000 : :Chapter 13


Приятного просмотра!
загрузка...
Правила, инструкции, FAQ!!!
Торрент  Добавлен [08 фев 2013, 21:04] Скачать торрент
Скачать торрент
[ Размер 11.48 КБ / Просмотров 13 ]

Статус
Проверен 
 
Размер  2.19 ГБ
Приватный: Нет (DHT включён)
.torrent скачан  0
Как залить торрент? | Как скачать Torrent? | Как смотреть и слушать онлайн?  


     Отправить личное сообщение
   
Страница 1 из 1
Показать сообщения за:  Поле сортировки  
Начать новую тему Ответить на тему

   Похожие торренты   Автор   Ответы   Просмотры   Последнее сообщение 
В этой теме нет новых непрочитанных сообщений. Скачать торрент Затерянные в космосе / Lost in Space (Стивен Хопкинс / Stephen Hopkins) [1998, США, Фантастика, Боевик, Приключения, Триллер, HDRip] DVO (Garsu Pasaulis)

в форуме Фантастика, Фэнтези, Размер: 1.46 ГБ, Здоровье: 100%

Anonymous

0
19|6

37
0

01 фев 2014, 19:05

Anonymous Перейти к последнему сообщению

В этой теме нет новых непрочитанных сообщений. Скачать торрент Проверен [iPad] Хищник 2 / Predator 2 (Стивен Хопкинс / Stephen Hopkins) [1990, фантастика, боевик, триллер, BDRip]

в форуме Фильмы для iPod, iPhone, iPad, Размер: 2.35 ГБ, Здоровье: 100%

Гость

0
5|1

26
0

14 май 2015, 00:20

Гость Перейти к последнему сообщению

В этой теме нет новых непрочитанных сообщений. Скачать торрент Бросок кобры / G.I. Joe: The Rise of Cobra (Стивен Соммерс / Stephen Sommers) [2009 г., Чехия, США, фантастика, боевик, приключения, экшн, BDRip] Dub + Orig + Sub (Rus, Eng)

в форуме Фантастика, Фэнтези, Размер: 2.19 ГБ, Здоровье: 100%

Anonymous

0
56|19

58
0

12 фев 2014, 08:16

Anonymous Перейти к последнему сообщению

В этой теме нет новых непрочитанных сообщений. Скачать торрент Индиана Джонс: В поисках утраченного ковчега / Raiders of the Lost Ark (Стивен Спилберг / Steven Spielberg) [1981, боевик, приключения, BDRip 720p]

в форуме 720p | 1080p, Размер: 10.07 ГБ, Здоровье: 100%

Anonymous

0
8|2

60
0

25 фев 2014, 22:42

Anonymous Перейти к последнему сообщению

В этой теме нет новых непрочитанных сообщений. Скачать торрент Лига выдающихся джентльменов / The League of Extraordinary Gentlemen (Стивен Норрингтон / Stephen Norrington) [2003 г., Фантастика, Боевик, Приключения, HDRip]

в форуме Фантастика, Фэнтези, Размер: 1.46 ГБ, Здоровье: 100%

Anonymous

0
11|4

61
0

29 апр 2014, 13:57

Anonymous Перейти к последнему сообщению



Сейчас этот форум просматривают: нет зарегистрированных пользователей и гости: 2


Вы не можете начинать темы
Вы не можете отвечать на сообщения
Вы не можете редактировать свои сообщения
Вы не можете удалять свои сообщения
Вы не можете добавлять вложения

Перейти:  

!ВНИМАНИЕ!
 Ресурс не предоставляет электронные версии произведений, а занимается лишь коллекционированием и каталогизацией ссылок, присылаемых и публикуемых на форуме нашими читателями. Если вы являетесь правообладателем какого-либо представленного материала и не желаете чтобы ссылка на него находилась в нашем каталоге, свяжитесь с нами и мы незамедлительно удалим её. Файлы для обмена на трекере предоставлены пользователями сайта, и администрация не несёт ответственности за их содержание. Просьба не заливать файлы, защищенные авторскими правами, а также файлы нелегального содержания!