На всех торрентах на трекере установлена скидка на скачивание в размере 100 процентов(а).
 Возможность скачивания торрента НЕ зависит от ограничений при низком ратио, низком аплоаде, требуемом ратио или требуемом аплоаде.


Начать новую тему Ответить на тему
Статистика раздачи
Размер: 2.91 ГБ | Добавлен: 08 фев 2013, 09:57 | Скачали: 0
Сидеров: 0  [0 байт/сек]    Личеров: 0  [0 байт/сек]
Пред. тема | След. тема 

Автор
Сообщение

СообщениеДобавлено: 08 фев 2013, 09:57 

Кокаин / Blow



Описание:
Джордж Джанг, обыкновенный парень из пригорода, решил осуществить американскую мечту своим способом — стать первым американцем, импортирующим кокаин в больших объемах. Он создал себе рынок сбыта, подсадив на кокаин самых знаменитых людей Америки. Вскоре он уже купался в деньгах и роскоши, о которых многие только мечтают. Ему удавалось обводить вокруг пальца не только ФБР, но и страшных колумбийских наркодельцов. Однако настоящий кайф он получал от опасности и риска, нуждаясь в адреналине больше чем в наркотиках.

Название: Кокаин / Blow
Год выпуска: 2001 г.
Производство: США
Жанр: драма, криминал, биография
Продолжительность: 02:03:26
Перевод: Профессиональный (многоголосый, закадровый), Профессиональный (полное дублирование)
Оригинальный аудиопоток: Aнглийский

Режиссер: Тед Демми / Ted Demme

В фильме снимались: Джонни Депп, Пенелопа Крус, Франка Потенте, Рэйчел Гриффитс, Пол Рубенс, Хорди Молья, Клифф Кёртис, Мигель Сандовал, Итан Сапли, Рэй Лиотта



Качество: BDRip-AVC
Формат: MKV
Видео: 1024x432 (2.35), 23.976 fps, 2 294 Kbps (0.212 bit/pixel)
Аудио 1: AC-3, 48.0 KHz, 6 ch, 448Kbps Многоголосый
Аудио 2: AC-3, 48.0 KHz, 2 ch, 192 Kbps Дубляж
Аудио 3: AC-3, 48.0 KHz, 6 ch, 448 Kbps Eng

Format : Matroska
Format version : Version 2
File size : 2.91 GiB
Duration : 2h 3mn
Overall bit rate : 3 386 Kbps
Movie name : Blow (2001) - The Jolly Roger by Pirat.Ca [zyyx]
Encoded date : UTC 2012-12-21 23:07:02
Writing application : mkvmerge v4.9.1 ('Ich will') сборка от Aug 10 2011 09:31:20
Writing library : libebml v1.2.1 + libmatroska v1.2.0

Video
ID : 1
Format : AVC
Format/Info : Advanced Video Codec
Format profile : High@L4.1
Format settings, CABAC : Yes
Format settings, ReFrames : 12 frames
Codec ID : V_MPEG4/ISO/AVC
Duration : 2h 3mn
Bit rate : 2 294 Kbps
Width : 1 024 pixels
Height : 432 pixels
Display aspect ratio : 2.40:1
Frame rate : 23.976 fps
Color space : YUV
Chroma subsampling : 4:2:0
Bit depth : 8 bits
Scan type : Progressive
Bits/(Pixel*Frame) : 0.216
Stream size : 1.92 GiB (66%)
Title : JRG
Writing library : x264 core 116 r2074 2641b9e
Encoding settings : cabac=1 / ref=12 / deblock=1:-1:-1 / analyse=0x3:0x133 / me=umh / subme=11 / psy=1 / psy_rd=1.00:0.10 / mixed_ref=1 / me_range=48 / chroma_me=1 / trellis=2 / 8x8dct=1 / cqm=0 / deadzone=21,11 / fast_pskip=0 / chroma_qp_offset=-3 / threads=12 / sliced_threads=0 / nr=0 / decimate=1 / interlaced=0 / bluray_compat=0 / constrained_intra=0 / bframes=8 / b_pyramid=2 / b_adapt=2 / b_bias=0 / direct=3 / weightb=1 / open_gop=0 / weightp=2 / keyint=250 / keyint_min=23 / scenecut=40 / intra_refresh=0 / rc_lookahead=50 / rc=2pass / mbtree=1 / bitrate=2294 / ratetol=1.0 / qcomp=0.60 / qpmin=0 / qpmax=69 / qpstep=4 / cplxblur=20.0 / qblur=0.5 / ip_ratio=1.40 / aq=1:1.00
Language : English
Default : Yes
Forced : No

Audio #1
ID : 2
Format : AC-3
Format/Info : Audio Coding 3
Mode extension : CM (complete main)
Format settings, Endianness : Big
Codec ID : A_AC3
Duration : 2h 3mn
Bit rate mode : Constant
Bit rate : 448 Kbps
Channel(s) : 6 channels
Channel positions : Front: L C R, Side: L R, LFE
Sampling rate : 48.0 KHz
Bit depth : 16 bits
Compression mode : Lossy
Stream size : 395 MiB (13%)
Language : Russian
Default : Yes
Forced : No

Audio #2
ID : 3
Format : AC-3
Format/Info : Audio Coding 3
Mode extension : CM (complete main)
Format settings, Endianness : Big
Codec ID : A_AC3
Duration : 2h 3mn
Bit rate mode : Constant
Bit rate : 192 Kbps
Channel(s) : 2 channels
Channel positions : Front: L R
Sampling rate : 48.0 KHz
Bit depth : 16 bits
Compression mode : Lossy
Stream size : 169 MiB (6%)
Language : Russian
Default : No
Forced : No

Audio #3
ID : 4
Format : AC-3
Format/Info : Audio Coding 3
Mode extension : CM (complete main)
Format settings, Endianness : Big
Codec ID : A_AC3
Duration : 2h 3mn
Bit rate mode : Constant
Bit rate : 448 Kbps
Channel(s) : 6 channels
Channel positions : Front: L C R, Side: L R, LFE
Sampling rate : 48.0 KHz
Bit depth : 16 bits
Compression mode : Lossy
Stream size : 395 MiB (13%)
Language : English
Default : No
Forced : No


Приятного просмотра!
загрузка...
Правила, инструкции, FAQ!!!
Торрент  Добавлен [08 фев 2013, 09:57] Скачать торрент
Скачать торрент
[ Размер 15.08 КБ / Просмотров 11 ]

Статус
Проверен 
 
Размер  2.91 ГБ
Приватный: Нет (DHT включён)
.torrent скачан  0
Как залить торрент? | Как скачать Torrent? | Как смотреть и слушать онлайн?  


     Отправить личное сообщение
   
Страница 1 из 1
Показать сообщения за:  Поле сортировки  
Начать новую тему Ответить на тему

   Похожие торренты   Автор   Ответы   Просмотры   Последнее сообщение 
В этой теме нет новых непрочитанных сообщений. Скачать торрент Монстр / Monster (Пэтти Дженкинс / Patty Jenkins) [2003, США, Германия, драма, криминал, биография, BDRip] Dub

в форуме Драмы, Мелодрамы, Размер: 1.46 ГБ, Здоровье: 100%

Anonymous

0
56|19

28
0

25 апр 2014, 08:52

Anonymous Перейти к последнему сообщению

В этой теме нет новых непрочитанных сообщений. Скачать торрент Проверен [VIDEO] Поймай меня, если сможешь / Catch Me If You Can (Стивен Спилберг / Steven Spielberg) [2002 г., Драма, Криминал, Биография, BDRip] [AVI, 480x]

в форуме Видео для смартфонов и КПК, Размер: 638.48 МБ, Здоровье: 100%

Anonymous

0
43|14

45
3

02 авг 2014, 17:04

Anonymous Перейти к последнему сообщению

В этой теме нет новых непрочитанных сообщений. Скачать торрент Бронсон / Bronson (Николас Виндинг Рёфн / Nicolas Winding Refn) [2008, Великобритания, боевик, триллер, драма, криминал, биография, BDRip]

в форуме Боевики, Размер: 830.56 МБ, Здоровье: 100%

Anonymous

0
2|1

32
0

02 апр 2014, 12:07

Anonymous Перейти к последнему сообщению

В этой теме нет новых непрочитанных сообщений. Скачать торрент Джон Ф. Кеннеди: Выстрелы в Далласе / JFK (Оливер Стоун / Oliver Stone) [1991, триллер, драма, криминал, детектив, биография, BDRip] [Режиссерская версия / Director's Cut] DUB + DVO + Original + Sub (Rus, Eng)

в форуме Триллеры, Размер: 4.36 ГБ, Здоровье: 100%

Anonymous

0
8|2

69
0

01 фев 2014, 19:05

Anonymous Перейти к последнему сообщению

В этой теме нет новых непрочитанных сообщений. Скачать торрент Игры разума / A Beautiful Mind (Рон Ховард / Ron Howard) [2001 г., драма, биография, BDRip] Dub

в форуме Драмы, Мелодрамы, Размер: 1.46 ГБ, Здоровье: 100%

Anonymous

0
57|19

17
1

22 апр 2014, 11:49

Anonymous Перейти к последнему сообщению



Сейчас этот форум просматривают: нет зарегистрированных пользователей и гости: 1


Вы не можете начинать темы
Вы не можете отвечать на сообщения
Вы не можете редактировать свои сообщения
Вы не можете удалять свои сообщения
Вы не можете добавлять вложения

Перейти:  

!ВНИМАНИЕ!
 Ресурс не предоставляет электронные версии произведений, а занимается лишь коллекционированием и каталогизацией ссылок, присылаемых и публикуемых на форуме нашими читателями. Если вы являетесь правообладателем какого-либо представленного материала и не желаете чтобы ссылка на него находилась в нашем каталоге, свяжитесь с нами и мы незамедлительно удалим её. Файлы для обмена на трекере предоставлены пользователями сайта, и администрация не несёт ответственности за их содержание. Просьба не заливать файлы, защищенные авторскими правами, а также файлы нелегального содержания!