На всех торрентах на трекере установлена скидка на скачивание в размере 100 процентов(а).
 Возможность скачивания торрента НЕ зависит от ограничений при низком ратио, низком аплоаде, требуемом ратио или требуемом аплоаде.


Начать новую тему Ответить на тему
Статистика раздачи
Размер: 4.36 ГБ | Добавлен: 19 июл 2014, 23:01 | Скачали: 119
Сидеров: 11  [0 байт/сек]    Личеров: 0  [0 байт/сек]
Пред. тема | След. тема 

Автор
Сообщение

СообщениеДобавлено: 19 июл 2014, 23:01 

Название: И пришел паук
Оригинальное название: Along Came a Spider
Год выхода: 2001
Жанр: триллер, криминал, детектив
Режиссер: Ли Тамахори

В ролях: Морган Фриман, Моника Поттер, Майкл Уинкотт, Дилан Бейкер, Мика Бурем, Антон Ельчин, Кимберли Хоторн, Джей О. Сэндерс, Билли Бёрк, Майкл Мориарти

Сюжет фильма:
Дочь известного сенатора похищена из закрытой, привилегированной школы. Похититель не выдвигает никаких требований и безжалостно расправляется со всеми, кто пытается встать у него на пути. Единственный человек, которому маньяк позвонил сразу после похищения, был Алекс Кросс.
Опытный сыщик понимает, что убийца решил предпочесть выкупу страшную и непредсказуемую игру, на кону которой - жизнь маленькой девочки. У Кросса и сотрудницы службы безопасности Джизи Флэниген остается очень мало времени, чтобы спасти ребенка...



Выпущено: США, Германия, Канада / Paramount Pictures, David Brown Productions, Phase 1 Productions
Продолжительность: 01:42:58
Перевод: Профессиональный (многоголосый, закадровый)


Качество: BDRip 720p (Исходник BD-Remux 1080p)
Формат: Matroska
Видео: AVC; 1280x544; 5683 Kbps; 23,976 fps
Аудио: Russian; AC3; 6ch; 48kHz; 384 Kbps



General
Unique ID : 237101003601210564312294257381959529114 (0xB25FFE05464AF9AAA3120CD5989BF29A)
Complete name : D:КИНОAlong.came.a.spider.2001.720p.mkv
Format : Matroska
Format version : Version 2
File size : 4.36 GiB
Duration : 1h 43mn
Overall bit rate : 6 057 Kbps
Encoded date : UTC 2014-05-10 20:27:39
Writing application : mkvmerge v6.1.0 ('Old Devil') built on Mar 4 2013 09:10:42
Writing library : libebml v1.3.0 + libmatroska v1.4.0

Video
ID : 1
Format : AVC
Format/Info : Advanced Video Codec
Format profile : High@L4.1
Format settings, CABAC : Yes
Format settings, ReFrames : 8 frames
Codec ID : V_MPEG4/ISO/AVC
Duration : 1h 43mn
Bit rate : 5 683 Kbps
Width : 1 280 pixels
Height : 544 pixels
Display aspect ratio : 2.35:1
Frame rate mode : Constant
Frame rate : 23.976 fps
Color space : YUV
Chroma subsampling : 4:2:0
Bit depth : 8 bits
Scan type : Progressive
Bits/(Pixel*Frame) : 0.340
Stream size : 4.00 GiB (92%)
Writing library : x264 core 130 r2273 b3065e6
Encoding settings : cabac=1 / ref=8 / deblock=1:-3:-3 / analyse=0x3:0x133 / me=umh / subme=11 / psy=1 / psy_rd=1.00:0.50 / mixed_ref=1 / me_range=32 / chroma_me=1 / trellis=2 / 8x8dct=1 / cqm=0 / deadzone=21,11 / fast_pskip=0 / chroma_qp_offset=-3 / threads=16 / lookahead_threads=4 / sliced_threads=0 / slices=4 / nr=0 / decimate=1 / interlaced=0 / bluray_compat=0 / constrained_intra=0 / bframes=8 / b_pyramid=2 / b_adapt=2 / b_bias=0 / direct=3 / weightb=1 / open_gop=0 / weightp=2 / keyint=240 / keyint_min=3 / scenecut=40 / intra_refresh=0 / rc_lookahead=150 / rc=2pass / mbtree=1 / bitrate=5683 / ratetol=1.0 / qcomp=0.70 / qpmin=10 / qpmax=51 / qpstep=4 / cplxblur=20.0 / qblur=0.5 / ip_ratio=1.40 / aq=2:2.00
Default : Yes
Forced : No

Audio
ID : 2
Format : AC-3
Format/Info : Audio Coding 3
Mode extension : CM (complete main)
Format settings, Endianness : Big
Codec ID : A_AC3
Duration : 1h 43mn
Bit rate mode : Constant
Bit rate : 384 Kbps
Channel(s) : 6 channels
Channel positions : Front: L C R, Side: L R, LFE
Sampling rate : 48.0 KHz
Bit depth : 16 bits
Compression mode : Lossy
Stream size : 283 MiB (6%)
Default : Yes
Forced : No
загрузка...
Правила, инструкции, FAQ!!!
Торрент  Добавлен [19 июл 2014, 23:01] Скачать торрент
Скачать торрент
[ Размер 11.53 КБ / Просмотров 6 ]

Статус
Проверен 
 
Размер  4.36 ГБ
Приватный: Нет (DHT включён)
.torrent скачан  119
Как залить торрент? | Как скачать Torrent? | Как смотреть и слушать онлайн?  


     Отправить личное сообщение
   
Страница 1 из 1
Показать сообщения за:  Поле сортировки  
Начать новую тему Ответить на тему

   Похожие торренты   Автор   Ответы   Просмотры   Последнее сообщение 
В этой теме нет новых непрочитанных сообщений. Скачать торрент Проверен И пришёл паук / Along Came A Spider (2001) BDRip 1080p

в форуме 720p | 1080p, Размер: 8.31 ГБ, Здоровье: 100%

Anonymous

0
6|1

19
74

19 июл 2014, 22:59

Anonymous Перейти к последнему сообщению

В этой теме нет новых непрочитанных сообщений. Скачать торрент Проверен И пришел паук / Along Came a Spider (2001) HDRip | Р

в форуме Триллеры, Размер: 1.45 ГБ, Здоровье: 100%

Anonymous

0
2|0

52
1

19 июл 2014, 22:56

Anonymous Перейти к последнему сообщению

В этой теме нет новых непрочитанных сообщений. Скачать торрент И пришел паук / Along Came a Spider (Ли Тамахори / Lee Tamahori) [2001, Триллер, криминал, детектив, HDRip]

в форуме Триллеры, Размер: 744.75 МБ, Здоровье: 100%

Anonymous

0
3|1

26
0

25 апр 2014, 08:55

Anonymous Перейти к последнему сообщению

В этой теме нет новых непрочитанных сообщений. Скачать торрент Проверен Паттерсон Джеймс - Явился паук (И пришел паук) [Заборовский Юрий, 2011, 96 kbps, MP3]

в форуме Детектив и Боевики, Размер: 694.43 МБ, Здоровье: 0%

Anonymous

0
0|0

0
0

20 ноя 2016, 18:24

Anonymous Перейти к последнему сообщению

В этой теме нет новых непрочитанных сообщений. Скачать торрент Новый Человек-паук / The Amazing Spider-Man (2012) BDRip 720p | D | Лицензия

в форуме 720p | 1080p, Размер: 2.93 ГБ, Здоровье: 100%

Anonymous

0
149|4

38
5325

21 апр 2014, 16:28

Anonymous Перейти к последнему сообщению



Сейчас этот форум просматривают: нет зарегистрированных пользователей и гости: 2


Вы не можете начинать темы
Вы не можете отвечать на сообщения
Вы не можете редактировать свои сообщения
Вы не можете удалять свои сообщения
Вы не можете добавлять вложения

Перейти:  

!ВНИМАНИЕ!
 Ресурс не предоставляет электронные версии произведений, а занимается лишь коллекционированием и каталогизацией ссылок, присылаемых и публикуемых на форуме нашими читателями. Если вы являетесь правообладателем какого-либо представленного материала и не желаете чтобы ссылка на него находилась в нашем каталоге, свяжитесь с нами и мы незамедлительно удалим её. Файлы для обмена на трекере предоставлены пользователями сайта, и администрация не несёт ответственности за их содержание. Просьба не заливать файлы, защищенные авторскими правами, а также файлы нелегального содержания!